<?xml version="1.0" standalone="no"?>
<!DOCTYPE svg PUBLIC "-//W3C//DTD SVG 1.1//EN" "http://www.w3.org/Graphics/SVG/1.1/DTD/svg11.dtd" >
<svg xmlns="http://www.w3.org/2000/svg" xmlns:xlink="http://www.w3.org/1999/xlink" version="1.1">
<metadata>
Created by FontForge 20170731 at Wed Sep 23 13:50:05 2020
 By Aleksey,,,
(c)2008-09 Paul Barnes and Christian Schwartz, under exclusive license to Schwartzco Inc./Commercial Type. All rights reserved.
</metadata>
<defs>
<font id="GuardianSans-Black" horiz-adv-x="1021" >
  <font-face 
    font-family="Guardian Sans Black"
    font-weight="800"
    font-stretch="normal"
    units-per-em="2048"
    panose-1="2 11 10 3 5 5 3 6 8 3"
    ascent="1618"
    descent="-430"
    x-height="1104"
    cap-height="1419"
    bbox="-406 -467 2800 2273"
    underline-thickness="208"
    underline-position="-312"
    unicode-range="U+0020-FB04"
  />
<missing-glyph 
 />
    <glyph glyph-name="f_f" unicode="ff" horiz-adv-x="1427" 
d="M147 0v813h-131v291h131v70q0 170 100.5 258t270.5 88q100 0 205 -27v-258q-36 6 -59 6q-91 0 -91 -106v-31h205v90q0 169 110.5 254.5t299.5 85.5q168 0 262 -35v-256q-54 12 -111 12q-70 0 -102.5 -27t-32.5 -83v-41h207v-291h-207v-813h-426v813h-205v-813h-426z" />
    <glyph glyph-name="f_i" unicode="fi" horiz-adv-x="1277" 
d="M147 0v813h-131v291h131v90q0 167 99.5 253.5t265.5 86.5q135 0 227 -27v-258q-27 6 -65 6q-101 0 -101 -110v-41h629v-1104h-424v813h-205v-813h-426zM811 1196v305h393v-305h-393z" />
    <glyph glyph-name="f_l" unicode="fl" horiz-adv-x="1277" 
d="M1202 0h-424v1247q-46 8 -76 8q-69 0 -99 -29.5t-30 -97.5v-24h134v-291h-134v-813h-426v813h-131v291h131v49q0 111 33 185.5t104.5 117.5t170 60.5t243.5 17.5q289 0 504 -49v-1485z" />
    <glyph glyph-name="f_f_i" unicode="ffi" horiz-adv-x="1908" 
d="M147 0v813h-131v291h131v70q0 170 100.5 258t270.5 88q100 0 205 -27v-258q-36 6 -59 6q-91 0 -91 -106v-31h205v90q0 168 99 254t266 86q137 0 225 -27v-258q-24 6 -63 6q-101 0 -101 -110v-41h629v-1104h-424v813h-205v-813h-426v813h-205v-813h-426zM1440 1196v305
h395v-305h-395z" />
    <glyph glyph-name="f_f_l" unicode="ffl" horiz-adv-x="1908" 
d="M147 0v813h-131v291h131v70q0 170 100.5 258t270.5 88q100 0 205 -27v-258q-36 6 -59 6q-91 0 -91 -106v-31h205v49q0 111 33 185.5t104.5 117.5t170 60.5t243.5 17.5q289 0 504 -49v-1485h-424v1247q-46 8 -76 8q-69 0 -99 -29.5t-30 -97.5v-24h133v-291h-133v-813h-426
v813h-205v-813h-426z" />
    <glyph glyph-name="f_b" unicode="fb" horiz-adv-x="1955" 
d="M1286 -23q-280 0 -508 86v1184q-46 8 -76 8q-69 0 -99 -29.5t-30 -97.5v-24h134v-291h-134v-813h-426v813h-131v291h131v49q0 111 33 185.5t104.5 117.5t170 60.5t243.5 17.5q289 0 504 -49v-465h10q122 104 306 104q66 0 122.5 -15.5t109 -53.5t90 -96t59.5 -148.5
t22 -206.5v-22q0 -167 -40 -284t-122 -187.5t-197.5 -102t-275.5 -31.5zM1309 262q40 0 69.5 11.5t55 39.5t38.5 82t13 133v31q0 100 -20 155t-53 73t-89 18q-65 0 -121 -29v-491q41 -23 107 -23z" />
    <glyph glyph-name="f_f_b" unicode="ffb" horiz-adv-x="2586" 
d="M1917 -23q-284 0 -508 86v1184q-46 8 -76 8q-69 0 -99 -29.5t-30 -97.5v-24h133v-291h-133v-813h-426v813h-205v-813h-426v813h-131v291h131v70q0 170 100.5 258t270.5 88q100 0 205 -27v-258q-36 6 -59 6q-91 0 -91 -106v-31h205v49q0 111 33 185.5t104.5 117.5
t170 60.5t243.5 17.5q289 0 504 -49v-465h10q122 104 305 104q66 0 123 -15.5t109.5 -53.5t90 -96t59.5 -149t22 -206v-22q0 -167 -40 -284t-122 -187.5t-197.5 -102t-275.5 -31.5zM1939 262q40 0 69.5 11.5t55 39.5t39 82t13.5 133v31q0 145 -39 195.5t-123 50.5
q-65 0 -121 -29v-491q41 -23 106 -23z" />
    <glyph glyph-name="f_f_h" unicode="ffh" horiz-adv-x="2564" 
d="M1409 0v1247q-46 8 -76 8q-69 0 -99 -29.5t-30 -97.5v-24h133v-291h-133v-813h-426v813h-205v-813h-426v813h-131v291h131v70q0 170 100.5 258t270.5 88q100 0 205 -27v-258q-36 6 -59 6q-91 0 -91 -106v-31h205v49q0 111 33 185.5t104.5 117.5t170 60.5t243.5 17.5
q289 0 504 -49v-469h10q130 108 330 108q326 0 326 -303v-821h-422v702q0 53 -27 75t-86 22q-62 0 -131 -25v-774h-424z" />
    <glyph glyph-name="f_f_j" unicode="ffj" horiz-adv-x="1908" 
d="M147 0v813h-131v291h131v70q0 170 100.5 258t270.5 88q100 0 205 -27v-258q-36 6 -59 6q-91 0 -91 -106v-31h205v90q0 168 99 254t266 86q137 0 225 -27v-258q-24 6 -63 6q-101 0 -101 -110v-41h629v-1135q0 -178 -99.5 -275t-322.5 -97q-140 0 -217 34v267q56 -7 72 -7
q143 0 143 123v799h-205v-813h-426v813h-205v-813h-426zM1440 1196v305h395v-305h-395z" />
    <glyph glyph-name="f_f_k" unicode="ffk" horiz-adv-x="2543" 
d="M150 0v813h-134v291h134v70q0 168 100 257t268 89q115 0 207 -27v-258q-42 6 -61 6q-91 0 -91 -106v-31h205v49q0 111 33 185.5t104.5 117.5t170 60.5t243.5 17.5q289 0 504 -49v-815l274 434h418l-325 -500l340 -604h-447l-260 479v-479h-424v1247q-31 8 -76 8
q-69 0 -99 -29.5t-30 -97.5v-24h133v-291h-133v-813h-426v813h-205v-813h-423z" />
    <glyph glyph-name="f_h" unicode="fh" horiz-adv-x="1935" 
d="M1202 0h-424v1247q-46 8 -76 8q-69 0 -99 -29.5t-30 -97.5v-24h134v-291h-134v-813h-426v813h-131v291h131v49q0 111 33 185.5t104.5 117.5t170 60.5t243.5 17.5q289 0 504 -49v-469h10q130 108 330 108q328 0 328 -303v-821h-424v702q0 53 -27 75t-86 22q-58 0 -131 -25
v-774z" />
    <glyph glyph-name="f_j" unicode="fj" horiz-adv-x="1277" 
d="M147 0v813h-131v291h131v90q0 167 99.5 253.5t265.5 86.5q135 0 227 -27v-258q-27 6 -65 6q-101 0 -101 -110v-41h629v-1135q0 -178 -99.5 -275t-322.5 -97q-140 0 -217 34v267q56 -7 74 -7q141 0 141 123v799h-205v-813h-426zM811 1196v305h393v-305h-393z" />
    <glyph glyph-name="f_k" unicode="fk" horiz-adv-x="1912" 
d="M1202 0h-424v1247q-31 8 -76 8q-69 0 -99 -29.5t-30 -97.5v-24h134v-291h-134v-813h-423v813h-134v291h134v49q0 111 33 185.5t104 117.5t169 60.5t242 17.5q289 0 504 -49v-815l275 434h417l-323 -500l338 -604h-447l-260 479v-479z" />
    <glyph glyph-name=".notdef" 
 />
    <glyph glyph-name=".null" horiz-adv-x="0" 
 />
    <glyph glyph-name="nonmarkingreturn" horiz-adv-x="682" 
 />
    <glyph glyph-name="space" unicode=" " horiz-adv-x="321" 
 />
    <glyph glyph-name="exclam" unicode="!" horiz-adv-x="610" 
d="M125 485l-62 934h484l-64 -934h-358zM104 0v352h402v-352h-402z" />
    <glyph glyph-name="quotedbl" unicode="&#x22;" horiz-adv-x="958" 
d="M553 946l-33 473h385l-33 -473h-319zM88 946l-33 473h383l-32 -473h-318z" />
    <glyph glyph-name="numbersign" unicode="#" horiz-adv-x="1173" 
d="M121 807v305h178l45 307h266l-45 -307h158l43 307h266l-43 -307h129v-305h-174l-26 -186h133v-308h-177l-45 -313h-266l45 313h-155l-45 -313h-267l45 313h-131v308h174l27 186h-135zM522 807l-26 -186h155l27 186h-156z" />
    <glyph glyph-name="dollar" unicode="$" horiz-adv-x="1169" 
d="M270 -242l52 232q-176 19 -275 71v314q190 -61 342 -76l55 248q-204 34 -305.5 134.5t-101.5 309.5q0 205 139.5 329t417.5 124h49l29 123h184l-31 -135q129 -18 219 -62v-313q-130 46 -288 63l-49 -229q113 -18 189 -47t131.5 -78.5t80.5 -123.5t25 -179
q0 -240 -153 -364t-441 -124h-35l-47 -217h-187zM737 408q0 45 -22.5 68t-91.5 40l-48 -221q88 7 125 35t37 78zM420 1026q0 -41 23 -64.5t85 -37.5l45 204q-85 -3 -119 -28t-34 -74z" />
    <glyph glyph-name="percent" unicode="%" horiz-adv-x="1964" 
d="M440 608q-181 0 -292 104t-111 302v16q0 202 113 308t292 106q85 0 158 -25.5t129.5 -74.5t88.5 -128t32 -180v-16q0 -102 -31.5 -181.5t-87.5 -129.5t-130 -75.5t-161 -25.5zM1518 -20q-181 0 -292.5 103t-111.5 300v16q0 103 31.5 183.5t87 131t128 76t159.5 25.5
q85 0 158 -25.5t129 -74.5t88 -127.5t32 -179.5v-19q0 -199 -113.5 -304t-295.5 -105zM360 -82l934 1542h287l-934 -1542h-287zM1520 193q53 0 71.5 38t18.5 146v33q0 109 -19 150.5t-71 41.5q-51 0 -70.5 -41t-19.5 -147v-33q0 -107 19.5 -147.5t70.5 -40.5zM442 821
q53 0 71.5 38t18.5 147v32q0 110 -19 151.5t-71 41.5q-51 0 -70.5 -41t-19.5 -148v-32q0 -108 19 -148.5t71 -40.5z" />
    <glyph glyph-name="ampersand" unicode="&#x26;" horiz-adv-x="1533" 
d="M614 -25q-284 0 -431.5 110.5t-147.5 317.5q0 147 84.5 251.5t232.5 166.5q-82 121 -82 242q0 169 133.5 275t364.5 106q222 0 340.5 -91.5t118.5 -242.5q0 -121 -79.5 -207.5t-236.5 -154.5l174 -209q40 85 64 192h326q-29 -257 -183 -442l242 -289h-510l-45 53
q-179 -78 -365 -78zM688 262q56 0 109 12l-273 330q-59 -56 -59 -149q0 -92 57 -142.5t166 -50.5zM682 1087q0 -72 82 -163q100 69 100 163q0 49 -23 79t-65 30q-94 0 -94 -109z" />
    <glyph glyph-name="quotesingle" unicode="'" horiz-adv-x="493" 
d="M88 946l-33 473h383l-32 -473h-318z" />
    <glyph glyph-name="parenleft" unicode="(" horiz-adv-x="821" 
d="M471 -246q-78 62 -147 143.5t-130 188t-97 242.5t-36 282v49q0 146 36 281.5t97 242t130 187.5t147 143h342q-146 -170 -237 -382.5t-91 -454.5v-70q0 -250 91 -465t237 -387h-342z" />
    <glyph glyph-name="parenright" unicode=")" horiz-adv-x="821" 
d="M8 -246q146 170 237 383t91 455v70q0 170 -47.5 334t-117 285t-163.5 232h342q78 -62 147 -143.5t130 -188t97 -242.5t36 -282v-49q0 -146 -36 -281.5t-97 -242t-130 -187.5t-147 -143h-342z" />
    <glyph glyph-name="asterisk" unicode="*" horiz-adv-x="868" 
d="M305 635l17 211l-170 -129l-125 235l202 74l-202 74l125 237l170 -131l-17 213h256l-14 -213l168 131l127 -237l-203 -74l203 -74l-127 -235l-168 129l14 -211h-256z" />
    <glyph glyph-name="plus" unicode="+" horiz-adv-x="1077" 
d="M358 221v322h-309v321h309v324h361v-324h309v-321h-309v-322h-361z" />
    <glyph glyph-name="comma" unicode="," horiz-adv-x="536" 
d="M55 -137l23 497h405l-106 -497h-322z" />
    <glyph glyph-name="hyphen" unicode="-" horiz-adv-x="688" 
d="M66 430v330h557v-330h-557z" />
    <glyph glyph-name="period" unicode="." horiz-adv-x="536" 
d="M68 0v360h399v-360h-399z" />
    <glyph glyph-name="slash" unicode="/" horiz-adv-x="851" 
d="M-31 -246l510 1759h367l-510 -1759h-367z" />
    <glyph glyph-name="zero" unicode="0" horiz-adv-x="1425" 
d="M709 -25q-113 0 -210 23t-182 75t-144.5 131t-93.5 196.5t-34 265.5v73q0 154 38 276.5t101.5 201.5t151.5 131t182.5 74t200.5 22q112 0 209 -23t181 -75.5t143.5 -131.5t93.5 -196t34 -264v-74q0 -152 -37.5 -273.5t-100 -201t-150 -132.5t-182.5 -75.5t-201 -22.5z
M713 305q64 0 99.5 27.5t54 103.5t18.5 217v92q0 149 -19.5 230.5t-54.5 110t-96 28.5q-62 0 -97.5 -26.5t-56 -105t-20.5 -220.5v-90q0 -142 18 -221.5t54.5 -112.5t99.5 -33z" />
    <glyph glyph-name="one" unicode="1" horiz-adv-x="837" 
d="M256 0v989l-215 -16v272l399 176h291v-1421h-475z" />
    <glyph glyph-name="two" unicode="2" horiz-adv-x="1118" 
d="M33 0v307l268 236q138 120 200 203t62 176q0 170 -231 170q-128 0 -281 -60v324q197 88 459 88q269 0 409 -114.5t140 -325.5q0 -86 -22.5 -161t-70.5 -142t-106.5 -124.5t-144.5 -125.5l-142 -115v-6h498v-330h-1038z" />
    <glyph glyph-name="three" unicode="3" horiz-adv-x="1140" 
d="M506 -25q-295 0 -471 86v306q165 -48 330 -48q128 0 183.5 32.5t55.5 101.5q0 66 -48 92t-144 26h-164v299h151q100 0 148.5 27t48.5 86q0 64 -51.5 90.5t-157.5 26.5q-131 0 -311 -37v305q212 76 467 76q236 0 375 -93.5t139 -269.5q0 -126 -69.5 -209.5t-186.5 -117.5
v-9q146 -26 220.5 -107.5t74.5 -234.5q0 -199 -153.5 -313.5t-436.5 -114.5z" />
    <glyph glyph-name="four" unicode="4" horiz-adv-x="1366" 
d="M672 0v319h-639v293l659 809h445v-788h198v-314h-198v-319h-465zM412 633h268v342h-8l-260 -336v-6z" />
    <glyph glyph-name="five" unicode="5" horiz-adv-x="1130" 
d="M481 -25q-272 0 -452 86v312q155 -45 307 -45q132 0 193 32t61 107q0 79 -58.5 111t-195.5 32q-123 0 -252 -24l43 833h891v-329h-559l-13 -197q75 14 158 14q244 0 362.5 -108.5t118.5 -337.5t-158.5 -357.5t-445.5 -128.5z" />
    <glyph glyph-name="six" unicode="6" horiz-adv-x="1325" 
d="M698 -25q-316 0 -484.5 170t-168.5 486v76q0 152 35 274.5t98.5 208t156 143t205 84.5t246.5 27q279 0 402 -55v-324q-111 29 -289 29q-191 0 -272.5 -52.5t-94.5 -195.5q126 63 302 63q217 0 335.5 -106t118.5 -316q0 -112 -35 -204t-105.5 -161.5t-185 -108
t-264.5 -38.5zM688 274q68 0 101.5 43t33.5 138q0 59 -10.5 96t-33.5 54t-48 22.5t-65 5.5q-71 0 -131 -29v-57q0 -147 36 -210t117 -63z" />
    <glyph glyph-name="seven" unicode="7" horiz-adv-x="1155" 
d="M106 0l533 1065v10h-604v344h1087v-305l-489 -1114h-527z" />
    <glyph glyph-name="eight" unicode="8" horiz-adv-x="1292" 
d="M637 -25q-303 0 -451.5 103.5t-148.5 273.5q0 107 67 194t187 134q-115 61 -166 140t-51 204q0 195 156 307.5t425 112.5q273 0 413 -101t140 -282q0 -211 -227 -305q146 -59 211 -137t65 -211q0 -204 -163.5 -318.5t-456.5 -114.5zM623 262q93 0 139.5 36t46.5 101
q0 70 -55.5 114.5t-206.5 74.5q-113 -72 -113 -180q0 -67 48.5 -106.5t140.5 -39.5zM707 877q108 53 108 153q0 57 -38.5 90t-117.5 33q-74 0 -112.5 -32.5t-38.5 -84.5q0 -57 44.5 -92.5t154.5 -66.5z" />
    <glyph glyph-name="nine" unicode="9" horiz-adv-x="1325" 
d="M549 -25q-292 0 -426 62v323q50 -13 140 -24.5t163 -11.5q205 0 282 52.5t83 196.5q-120 -63 -289 -63q-224 0 -344.5 108t-120.5 330q0 106 35 194.5t104.5 156.5t184 106.5t264.5 38.5q315 0 484 -168t169 -488v-75q0 -738 -729 -738zM659 786q72 0 132 29v57
q0 148 -37.5 210.5t-116.5 62.5q-69 0 -103 -42.5t-34 -137.5q0 -59 11 -96t34.5 -54.5t48.5 -23t65 -5.5z" />
    <glyph glyph-name="colon" unicode=":" horiz-adv-x="550" 
d="M76 588v358h399v-358h-399zM76 0v360h399v-360h-399z" />
    <glyph glyph-name="semicolon" unicode=";" horiz-adv-x="550" 
d="M51 -137l23 497h407l-106 -497h-324zM76 588v358h399v-358h-399z" />
    <glyph glyph-name="less" unicode="&#x3c;" horiz-adv-x="960" 
d="M891 143l-832 359v319l832 357v-336l-453 -180l453 -181v-338z" />
    <glyph glyph-name="equal" unicode="=" horiz-adv-x="1058" 
d="M66 694v316h925v-316h-925zM66 225v318h925v-318h-925z" />
    <glyph glyph-name="greater" unicode="&#x3e;" horiz-adv-x="960" 
d="M70 143v336l450 180l-450 183v336l829 -357v-319z" />
    <glyph glyph-name="question" unicode="?" horiz-adv-x="946" 
d="M180 485v76q0 70 18.5 119t53.5 85t102 83q63 43 89 75.5t26 80.5q0 61 -45.5 86.5t-151.5 25.5q-132 0 -241 -31v297q170 62 389 62q231 0 360 -92t129 -289q0 -93 -23 -158t-62 -106.5t-109 -89.5q-113 -74 -143.5 -105.5t-30.5 -85.5v-33h-361zM164 0v352h399v-352
h-399z" />
    <glyph glyph-name="at" unicode="@" horiz-adv-x="1878" 
d="M907 -334q-193 0 -349.5 47.5t-271.5 142.5t-178 247.5t-63 351.5q0 200 69.5 373t195.5 298t311 196t407 71q236 0 418 -84t286.5 -248t104.5 -385q0 -151 -41 -269t-114 -191t-168.5 -110.5t-208.5 -37.5q-114 0 -185 34t-90 91h-10q-43 -51 -109.5 -83t-146.5 -32
q-60 0 -110.5 16.5t-93.5 52t-68 100t-25 152.5q0 165 47 293t139.5 202.5t216.5 74.5q147 0 220 -60h10l10 41h322l-107 -547q-6 -29 -7 -45.5t1.5 -35t16.5 -27t38 -8.5q94 0 153.5 100t59.5 275q0 249 -140 384.5t-439 135.5q-210 0 -371 -88.5t-249.5 -252t-88.5 -378.5
q0 -590 608 -590q275 0 535 84v-182q-227 -109 -535 -109zM889 303q41 0 76 35l71 405q-23 23 -73 23q-65 0 -106.5 -106.5t-41.5 -251.5q0 -51 19.5 -78t54.5 -27z" />
    <glyph glyph-name="A" unicode="A" horiz-adv-x="1476" 
d="M-6 0l491 1419h512l484 -1419h-484l-73 236h-435l-69 -236h-426zM698 948l-125 -418h263l-127 418h-11z" />
    <glyph glyph-name="B" unicode="B" horiz-adv-x="1357" 
d="M88 0v1419h680q496 0 496 -360q0 -255 -240 -316v-6q145 -25 225 -104.5t80 -229.5q0 -183 -131.5 -293t-406.5 -110h-703zM555 291h125q74 0 117 40t43 122q0 145 -168 145h-117v-307zM555 842h113q149 0 149 149q0 144 -147 144h-115v-293z" />
    <glyph glyph-name="C" unicode="C" horiz-adv-x="1187" 
d="M748 -25q-344 0 -527.5 174.5t-183.5 528.5v51q0 152 36.5 273.5t101.5 203t157 136t198.5 78.5t231.5 24q254 0 377 -55v-338q-121 41 -267 41q-167 0 -247 -80t-80 -256v-60q0 -190 72 -279t247 -89q149 0 283 49v-332q-162 -70 -399 -70z" />
    <glyph glyph-name="D" unicode="D" horiz-adv-x="1439" 
d="M88 0v1419h588q174 0 304.5 -36t226.5 -114.5t145 -210.5t49 -317v-49q0 -182 -51 -316.5t-147.5 -216t-227 -120.5t-297.5 -39h-590zM565 326h101q81 0 131 30.5t77 108t27 211.5v74q0 101 -15 169t-47 106t-74 53.5t-103 15.5h-97v-768z" />
    <glyph glyph-name="E" unicode="E" horiz-adv-x="1191" 
d="M88 0v1419h1030v-329h-559v-207h440v-324h-440v-229h586v-330h-1057z" />
    <glyph glyph-name="F" unicode="F" horiz-adv-x="1163" 
d="M88 0v1419h1034v-329h-557v-265h439v-323h-439v-502h-477z" />
    <glyph glyph-name="G" unicode="G" horiz-adv-x="1384" 
d="M793 -23q-181 0 -316.5 37.5t-236 119.5t-152 221.5t-51.5 334.5v47q0 157 41 280t110.5 202t168.5 130.5t208 73t236 21.5q145 0 262.5 -22t187.5 -54v-340q-172 55 -368 55q-107 0 -177 -21t-109 -66.5t-54 -104.5t-15 -148v-63q0 -99 10 -164t36.5 -114.5t75.5 -72
t126 -22.5q54 0 113 19v172h-168v297h606v-721q-89 -38 -238.5 -67.5t-295.5 -29.5z" />
    <glyph glyph-name="H" unicode="H" horiz-adv-x="1488" 
d="M88 0v1419h477v-526h359v526h477v-1419h-477v559h-359v-559h-477z" />
    <glyph glyph-name="I" unicode="I" horiz-adv-x="667" 
d="M96 0v1419h475v-1419h-475z" />
    <glyph glyph-name="J" unicode="J" horiz-adv-x="933" 
d="M362 -16q-205 0 -331 67v314q88 -19 149 -19q201 0 201 156v917h477v-985q0 -205 -128 -327.5t-368 -122.5z" />
    <glyph glyph-name="K" unicode="K" horiz-adv-x="1445" 
d="M88 0v1419h477v-600l385 600h477l-440 -669l471 -750h-526l-367 586v-586h-477z" />
    <glyph glyph-name="L" unicode="L" horiz-adv-x="1107" 
d="M88 0v1419h477v-1089h506v-330h-983z" />
    <glyph glyph-name="M" unicode="M" horiz-adv-x="1853" 
d="M88 0v1419h629l211 -735h8l211 735h618v-1419h-467v881h-6l-248 -881h-315l-246 881h-8v-881h-387z" />
    <glyph glyph-name="N" unicode="N" horiz-adv-x="1478" 
d="M88 0v1419h508l385 -682h8v682h402v-1419h-447l-446 782h-9v-782h-401z" />
    <glyph glyph-name="O" unicode="O" horiz-adv-x="1495" 
d="M741 -25q-116 0 -218 23.5t-192.5 77.5t-154.5 134.5t-101.5 200.5t-37.5 269v49q0 153 41 276.5t109 204t162 134.5t194.5 77t210.5 23q117 0 219 -23.5t192 -77.5t154.5 -134t101.5 -199.5t37 -268.5v-49q0 -154 -40.5 -277.5t-109 -204.5t-162 -135t-194 -77
t-211.5 -23zM750 315q105 0 156.5 82.5t51.5 270.5v73q0 139 -24 219.5t-68 112t-118 31.5q-105 0 -158 -81.5t-53 -270.5v-72q0 -109 14.5 -182.5t44 -112.5t66 -54.5t88.5 -15.5z" />
    <glyph glyph-name="P" unicode="P" horiz-adv-x="1345" 
d="M88 0v1419h641q296 0 445 -121t149 -354q0 -251 -147.5 -378.5t-438.5 -127.5h-172v-438h-477zM565 729h105q89 0 127.5 46.5t38.5 144.5q0 103 -38.5 143.5t-117.5 40.5h-115v-375z" />
    <glyph glyph-name="Q" unicode="Q" horiz-adv-x="1495" 
d="M1458 721q0 -430 -334 -547l355 -59l-76 -344l-785 198q-89 23 -156 47.5t-137.5 62.5t-119.5 90t-89 123t-59.5 168.5t-19.5 219.5v49q0 153 41 276.5t109 204t162 134.5t194.5 77t210.5 23q117 0 219 -23t192 -75.5t154.5 -131.5t101.5 -197t37 -265v-31zM750 307
q105 0 156.5 82.5t51.5 272.5v79q0 139 -24 219.5t-68 112t-118 31.5q-105 0 -158 -81.5t-53 -270.5v-80q0 -109 14.5 -182t44 -112.5t66 -55t88.5 -15.5z" />
    <glyph glyph-name="R" unicode="R" horiz-adv-x="1384" 
d="M88 0v1419h664q284 0 422.5 -109.5t138.5 -344.5q0 -139 -55.5 -222t-167.5 -135v-6l299 -602h-488l-231 485h-105v-485h-477zM557 760h123q86 0 126 44.5t40 135.5q0 86 -40.5 127t-129.5 41h-119v-348z" />
    <glyph glyph-name="S" unicode="S" horiz-adv-x="1157" 
d="M532 -25q-326 0 -489 80v338q114 -37 212.5 -56.5t215.5 -19.5q105 0 148 23t43 74q0 45 -29.5 64t-124.5 36l-92 18q-94 17 -160.5 46t-118.5 80t-78 131.5t-26 191.5q0 102 33.5 185.5t100 146t174.5 97t249 34.5q293 0 444 -72v-332q-192 66 -393 66
q-85 0 -124.5 -21.5t-39.5 -68.5q0 -41 32 -60.5t120 -37.5l90 -17q105 -19 176.5 -48t125.5 -79t79.5 -126.5t25.5 -184.5q0 -240 -153 -364t-441 -124z" />
    <glyph glyph-name="T" unicode="T" horiz-adv-x="1232" 
d="M377 0v1090h-354v329h1187v-329h-356v-1090h-477z" />
    <glyph glyph-name="U" unicode="U" horiz-adv-x="1423" 
d="M729 -25q-649 0 -649 539v905h475v-891q0 -105 45 -157t141 -52q95 0 139 52t44 159v889h422v-905q0 -539 -617 -539z" />
    <glyph glyph-name="V" unicode="V" horiz-adv-x="1454" 
d="M479 0l-477 1419h483l265 -880h10l258 880h434l-477 -1419h-496z" />
    <glyph glyph-name="W" unicode="W" horiz-adv-x="2015" 
d="M338 0l-330 1419h475l158 -811h8l193 811h381l192 -811h8l174 811h410l-334 -1419h-481l-176 791h-6l-189 -791h-483z" />
    <glyph glyph-name="X" unicode="X" horiz-adv-x="1470" 
d="M4 0l408 735l-373 684h522l205 -409h8l197 409h463l-371 -671l403 -748h-522l-233 444h-9l-233 -444h-465z" />
    <glyph glyph-name="Y" unicode="Y" horiz-adv-x="1363" 
d="M444 0v557l-446 862h506l211 -450h6l211 450h432l-442 -862v-557h-478z" />
    <glyph glyph-name="Z" unicode="Z" horiz-adv-x="1220" 
d="M55 0v319l559 762v9h-528v329h1069v-319l-559 -762v-8h567v-330h-1108z" />
    <glyph glyph-name="bracketleft" unicode="[" horiz-adv-x="798" 
d="M96 -246v1759h662v-307h-238v-1145h238v-307h-662z" />
    <glyph glyph-name="backslash" unicode="\" horiz-adv-x="851" 
d="M516 -246l-510 1759h365l510 -1759h-365z" />
    <glyph glyph-name="bracketright" unicode="]" horiz-adv-x="798" 
d="M43 -246v307h236v1145h-236v307h659v-1759h-659z" />
    <glyph glyph-name="asciicircum" unicode="^" horiz-adv-x="1013" 
d="M23 887l313 532h342l313 -532h-336l-149 209l-150 -209h-333z" />
    <glyph glyph-name="underscore" unicode="_" horiz-adv-x="823" 
d="M-8 -352v258h839v-258h-839z" />
    <glyph glyph-name="grave" unicode="`" 
d="M369 1186l-209 325h422l123 -325h-336z" />
    <glyph glyph-name="a" unicode="a" horiz-adv-x="1105" 
d="M371 -20q-159 0 -252.5 79.5t-93.5 233.5q0 72 20.5 127t55.5 91.5t91 62.5t115.5 41t141.5 26l169 23v32q0 72 -41.5 95.5t-154.5 23.5q-163 0 -303 -35v277q170 67 465 67q224 0 340 -79t116 -265v-780h-354l-27 82h-12q-65 -102 -276 -102zM522 238q60 0 96 32v187
l-88 -6q-56 -3 -80 -28.5t-24 -80.5q0 -104 96 -104z" />
    <glyph glyph-name="b" unicode="b" horiz-adv-x="1247" 
d="M578 -23q-280 0 -508 86v1450h424v-493h10q122 104 305 104q66 0 122.5 -15.5t109 -53.5t90 -96t59.5 -148.5t22 -206.5v-22q0 -167 -40 -284t-122 -187.5t-197 -102t-275 -31.5zM600 262q40 0 69.5 11.5t55 39.5t38.5 82t13 133v31q0 100 -20 155t-53 73t-89 18
q-60 0 -120 -29v-491q41 -23 106 -23z" />
    <glyph glyph-name="c" unicode="c" horiz-adv-x="976" 
d="M600 -20q-282 0 -425.5 142t-143.5 413v22q0 276 152.5 421.5t434.5 145.5q210 0 312 -51v-301q-98 39 -217 39q-240 0 -240 -229v-27q0 -139 54.5 -200.5t181.5 -61.5q98 0 227 39v-283q-123 -69 -336 -69z" />
    <glyph glyph-name="d" unicode="d" horiz-adv-x="1247" 
d="M463 -20q-92 0 -168 32t-135 96t-92 170t-33 246v23q0 124 24.5 221t68 163.5t107 110t139.5 63t167 19.5q127 0 213 -39v428h422v-1513h-367l-27 84h-10q-116 -104 -309 -104zM631 285q70 0 123 34v496q-52 29 -115 29q-84 0 -126 -59t-42 -212v-32q0 -77 11 -128
t33 -78.5t49.5 -38.5t66.5 -11z" />
    <glyph glyph-name="e" unicode="e" horiz-adv-x="1155" 
d="M635 -20q-604 0 -604 563v24q0 251 150.5 404t414.5 153q284 0 407 -148.5t123 -438.5v-86h-663q18 -103 84 -141t203 -38q159 0 325 60v-256q-172 -96 -440 -96zM600 852q-59 0 -95 -41t-46 -143h264q0 101 -29 142.5t-94 41.5z" />
    <glyph glyph-name="f" unicode="f" horiz-adv-x="796" 
d="M147 0v813h-131v291h131v90q0 169 110.5 254.5t299.5 85.5q172 0 262 -35v-256q-54 12 -110 12q-70 0 -103 -27t-33 -83v-41h207v-291h-207v-813h-426z" />
    <glyph glyph-name="g" unicode="g" horiz-adv-x="1146" 
d="M530 -410q-280 0 -414 68t-134 188q0 151 200 215v11q-121 54 -121 174q0 131 140 231q-150 89 -150 273v12q0 177 130 269.5t364 92.5q121 0 213 -18h370v-232h-127q27 -43 27 -106v-12q0 -171 -127 -259.5t-358 -88.5q-83 0 -150 12q-14 -24 -14 -43q0 -29 17.5 -40
t62.5 -11h315q375 0 375 -320q0 -196 -156.5 -306t-462.5 -110zM530 -166q209 0 209 96q0 41 -24.5 53.5t-100.5 12.5h-206q-58 -21 -58 -76q0 -41 39 -63.5t141 -22.5zM545 614q51 0 76.5 31.5t25.5 110.5v14q0 87 -24 115t-80 28q-52 0 -76.5 -30.5t-24.5 -110.5v-14
q0 -81 24.5 -112.5t78.5 -31.5z" />
    <glyph glyph-name="h" unicode="h" horiz-adv-x="1226" 
d="M70 0v1513h424v-497h10q130 108 330 108q158 0 242.5 -72t84.5 -231v-821h-424v702q0 53 -27 75t-85 22t-131 -25v-774h-424z" />
    <glyph glyph-name="i" unicode="i" horiz-adv-x="575" 
d="M76 0v1104h424v-1104h-424zM74 1196v305h428v-305h-428z" />
    <glyph glyph-name="j" unicode="j" horiz-adv-x="575" 
d="M78 -403q-140 0 -217 34v267q63 -7 73 -7q142 0 142 123v1090h424v-1135q0 -178 -99.5 -275t-322.5 -97zM74 1196v305h428v-305h-428z" />
    <glyph glyph-name="k" unicode="k" horiz-adv-x="1204" 
d="M754 0l-260 479v-479h-424v1513h424v-843l274 434h418l-324 -500l338 -604h-446z" />
    <glyph glyph-name="l" unicode="l" horiz-adv-x="575" 
d="M76 0v1513h424v-1513h-424z" />
    <glyph glyph-name="m" unicode="m" horiz-adv-x="1839" 
d="M70 0v1104h411v-100h11q138 120 344 120q195 0 262 -125h10q162 125 365 125q148 0 223.5 -69.5t75.5 -229.5v-825h-422v705q0 50 -23.5 72t-75.5 22q-48 0 -118 -25v-774h-424v705q0 51 -23 72.5t-76 21.5q-43 0 -116 -25v-774h-424z" />
    <glyph glyph-name="n" unicode="n" horiz-adv-x="1226" 
d="M70 0v1104h411v-98h11q135 118 342 118q158 0 242.5 -72t84.5 -231v-821h-424v702q0 53 -27 75t-85 22t-131 -25v-774h-424z" />
    <glyph glyph-name="o" unicode="o" horiz-adv-x="1230" 
d="M614 -20q-285 0 -434 144t-149 411v22q0 143 45 253t125 177.5t184 102t229 34.5q289 0 437.5 -140t148.5 -413v-22q0 -143 -45 -253.5t-125.5 -178.5t-185.5 -102.5t-230 -34.5zM616 262q50 0 80.5 20.5t49 81t18.5 166.5v33q0 90 -10 147.5t-32 85.5t-46.5 37t-63.5 9
q-49 0 -79 -20.5t-48 -80.5t-18 -166v-34q0 -87 10 -143.5t31 -85.5t46 -39.5t62 -10.5z" />
    <glyph glyph-name="p" unicode="p" horiz-adv-x="1247" 
d="M70 -399v1503h411v-96h11q58 59 132 87.5t185 28.5q65 0 121.5 -15.5t109.5 -54t90 -97t59.5 -151t22.5 -210.5v-21q0 -164 -37 -281.5t-108 -185t-162 -98t-209 -30.5q-122 0 -202 32v-411h-424zM608 262q56 0 90.5 19.5t56 78.5t21.5 164v31q0 101 -19 156t-50.5 72.5
t-85.5 17.5q-77 0 -127 -31v-479q45 -29 114 -29z" />
    <glyph glyph-name="q" unicode="q" horiz-adv-x="1245" 
d="M754 -399v458h-11q-54 -43 -115.5 -61t-156.5 -18q-90 0 -166 30t-138 92t-97 168t-35 246v23q0 132 28 231.5t80 166.5t132 109t176.5 60t220.5 18q300 0 504 -75v-1448h-422zM629 293q65 0 125 33v497q-59 19 -115 19q-58 0 -93 -21.5t-55 -81t-20 -164.5v-30
q0 -78 10.5 -129t33 -77t49 -36t65.5 -10z" />
    <glyph glyph-name="r" unicode="r" horiz-adv-x="845" 
d="M70 0v1104h411v-137h11q42 69 110.5 108t153.5 39q44 0 63 -8v-375q-40 12 -98 12q-143 0 -227 -34v-709h-424z" />
    <glyph glyph-name="s" unicode="s" horiz-adv-x="974" 
d="M432 -20q-111 0 -218 19.5t-175 49.5v277q178 -60 330 -60q91 0 128.5 16t37.5 52q0 31 -21 42t-82 21l-102 15q-150 24 -224.5 108t-74.5 240q0 176 117.5 270t355.5 94q223 0 368 -55v-274q-58 15 -87 22t-93.5 16t-126.5 9q-74 0 -105.5 -13.5t-31.5 -48.5
q0 -31 24 -43t89 -22l100 -15q164 -25 233.5 -108t69.5 -230q0 -192 -123.5 -287t-388.5 -95z" />
    <glyph glyph-name="t" unicode="t" horiz-adv-x="817" 
d="M518 -18q-191 0 -282 73t-91 260v502h-129v287h129v260h426v-260h207v-287h-207v-442q0 -49 26 -67.5t85 -18.5q46 0 96 12v-272q-36 -19 -105.5 -33t-154.5 -14z" />
    <glyph glyph-name="u" unicode="u" horiz-adv-x="1216" 
d="M403 -20q-337 0 -337 319v805h423v-711q0 -54 26 -76t83 -22q61 0 125 27v782h424v-1104h-375l-27 98h-10q-76 -61 -153.5 -89.5t-178.5 -28.5z" />
    <glyph glyph-name="v" unicode="v" horiz-adv-x="1210" 
d="M379 0l-379 1104h438l185 -629h8l184 629h395l-381 -1104h-450z" />
    <glyph glyph-name="w" unicode="w" horiz-adv-x="1673" 
d="M295 0l-285 1104h432l125 -565h8l144 565h309l143 -565h9l123 565h360l-283 -1104h-393l-145 553h-6l-150 -553h-391z" />
    <glyph glyph-name="x" unicode="x" horiz-adv-x="1220" 
d="M0 0l340 575l-313 529h471l149 -293l141 293h402l-303 -518l332 -586h-469l-172 324l-175 -324h-403z" />
    <glyph glyph-name="y" unicode="y" horiz-adv-x="1200" 
d="M332 -406q-63 0 -133 9.5t-105 23.5v281q75 -14 121 -14q74 0 114.5 21.5t55.5 66.5l14 45l-401 1077h440l180 -598h9l180 598h395l-416 -1202q-57 -165 -161.5 -236.5t-292.5 -71.5z" />
    <glyph glyph-name="z" unicode="z" horiz-adv-x="1026" 
d="M37 0v295l438 514v6h-426v289h940v-270l-457 -537v-6h447v-291h-942z" />
    <glyph glyph-name="braceleft" unicode="{" horiz-adv-x="829" 
d="M788 -250q-227 2 -361.5 46.5t-188.5 124t-54 206.5v201q0 76 -38 109.5t-119 41.5v305q83 7 120 36t37 106v198q0 95 30 164.5t98.5 122t187 79.5t288.5 28v-312q-92 -6 -136 -37.5t-44 -107.5v-160q0 -112 -54 -177.5t-189 -90.5v-6q135 -25 189 -92t54 -179v-159
q0 -75 42.5 -102t137.5 -34v-311z" />
    <glyph glyph-name="bar" unicode="|" horiz-adv-x="585" 
d="M131 -246v1759h324v-1759h-324z" />
    <glyph glyph-name="braceright" unicode="}" horiz-adv-x="829" 
d="M43 -250v311q91 6 135.5 38.5t44.5 107.5v160q0 111 54 177t188 91v6q-134 25 -188 91.5t-54 178.5v160q0 74 -43 101t-137 34v312q226 -2 360.5 -46.5t189 -124t54.5 -206.5v-201q0 -76 38 -110t118 -42v-305q-83 -7 -119.5 -35.5t-36.5 -105.5v-199q0 -95 -30.5 -164.5
t-99 -121.5t-187 -79t-287.5 -28z" />
    <glyph glyph-name="asciitilde" unicode="~" horiz-adv-x="950" 
d="M43 442q6 107 33 185t68 120t86.5 61t97.5 19q50 0 102 -17.5t91.5 -35.5t58.5 -18q54 0 67 67h260q-5 -86 -24 -153.5t-46 -110.5t-63 -71t-73 -39t-78 -11q-50 0 -102 17.5t-91.5 35t-58.5 17.5q-51 0 -68 -66h-260z" />
    <glyph glyph-name="uni00A0" unicode="&#xa0;" horiz-adv-x="321" 
 />
    <glyph glyph-name="exclamdown" unicode="&#xa1;" horiz-adv-x="610" 
d="M63 -246l64 934h356l64 -934h-484zM104 821v353h400v-353h-400z" />
    <glyph glyph-name="cent" unicode="&#xa2;" horiz-adv-x="1005" 
d="M442 -242l39 232q-223 31 -336.5 170t-113.5 375v22q0 276 158.5 421.5t449.5 145.5h41l22 125h187l-27 -143q38 -8 99 -33v-293q-83 31 -150 35l-92 -530h22q92 0 226 39v-273q-101 -61 -301 -69l-39 -224h-185zM455 551q0 -163 86 -221l84 479q-85 -18 -127.5 -71
t-42.5 -152v-35z" />
    <glyph glyph-name="sterling" unicode="&#xa3;" horiz-adv-x="1165" 
d="M59 555v285h121v106q0 126 41 222.5t116.5 156t177.5 89.5t228 30q248 0 353 -58v-321q-115 27 -213 27q-226 0 -226 -195v-57h295v-285h-297q-17 -141 -149 -221v-4h614v-330h-1069v309q129 57 129 199v47h-121z" />
    <glyph glyph-name="yen" unicode="&#xa5;" horiz-adv-x="1366" 
d="M449 0v184h-318v269h318v82h-318v266h217l-344 618h500l213 -467h6l213 467h428l-342 -618h219v-266h-317v-82h317v-269h-317v-184h-475z" />
    <glyph glyph-name="brokenbar" unicode="&#xa6;" horiz-adv-x="636" 
d="M131 -246v828h375v-828h-375zM131 752v759h375v-759h-375z" />
    <glyph glyph-name="section" unicode="&#xa7;" horiz-adv-x="1193" 
d="M543 -270q-123 0 -236 23t-184 59v284q65 -23 104 -35t109 -24t143 -12q94 0 134 19t40 58q0 35 -24 51.5t-90 28.5l-123 25q-89 18 -153.5 41.5t-119 63t-82.5 101t-28 144.5q0 104 44.5 167t135.5 93q-98 95 -98 252q0 182 125.5 278.5t380.5 96.5q237 0 391 -70v-282
q-181 61 -332 61q-79 0 -113.5 -15.5t-34.5 -54.5q0 -34 24.5 -49.5t92.5 -29.5l123 -25q99 -20 166.5 -44t121 -63t78.5 -96.5t25 -136.5q0 -110 -42.5 -175.5t-129.5 -98.5q94 -79 94 -236q0 -203 -132.5 -301t-409.5 -98zM598 680l-55 14l-4 2q-109 -14 -109 -86
q0 -41 30 -63t120 -43l47 -15q1 0 3 -1t3 -1q65 7 93 28t28 58q0 40 -30 61.5t-126 45.5z" />
    <glyph glyph-name="dieresis" unicode="&#xa8;" 
d="M563 1196v305h342v-305h-342zM117 1196v305h342v-305h-342z" />
    <glyph glyph-name="copyright" unicode="&#xa9;" horiz-adv-x="1574" 
d="M784 -29q-155 0 -292.5 58.5t-234 157t-152.5 234t-56 284.5q0 200 95 366.5t264 264.5t376 98q155 0 293.5 -57.5t236.5 -155.5t155 -232.5t57 -283.5t-57 -284.5t-155 -234t-236.5 -157t-293.5 -58.5zM784 88q173 0 310.5 79t214.5 220t77 318q0 268 -169.5 440
t-432.5 172q-262 0 -429 -171.5t-167 -440.5q0 -177 75.5 -318t211.5 -220t309 -79zM821 285q-199 0 -309.5 101.5t-110.5 301.5v17q0 107 33 188.5t92 130t134 72.5t165 24q144 0 230 -39v-225q-58 21 -135 21q-88 0 -129 -35t-41 -117v-31q0 -91 36.5 -130.5t128.5 -39.5
q59 0 142 25v-221q-2 -1 -17.5 -6t-20 -6.5t-20 -6.5t-23.5 -6.5t-24 -5.5t-28.5 -5t-29.5 -3.5t-35 -3t-38 -0.5z" />
    <glyph glyph-name="ordfeminine" unicode="&#xaa;" horiz-adv-x="1001" 
d="M332 432q-141 0 -223 70.5t-82 206.5q0 79 27.5 134.5t82.5 89t118.5 52t154.5 31.5l147 18v31q0 63 -35.5 82.5t-136.5 19.5q-156 0 -276 -30v245q155 60 419 60q199 0 305.5 -70t106.5 -233v-688h-322l-22 69h-12q-27 -42 -95 -65t-157 -23zM473 664q59 0 84 28v164
l-74 -4q-50 -3 -71 -26.5t-21 -71.5q0 -51 21.5 -70.5t60.5 -19.5z" />
    <glyph glyph-name="guillemotleft" unicode="&#xab;" horiz-adv-x="1120" 
d="M719 104l-182 365v96l182 365h344l-180 -412l180 -414h-344zM236 104l-183 365v96l183 365h344l-181 -412l181 -414h-344z" />
    <glyph glyph-name="registered" unicode="&#xae;" horiz-adv-x="933" 
d="M465 612q-177 0 -299.5 123t-122.5 295q0 173 122 293.5t300 120.5t302 -121t124 -293q0 -171 -124.5 -294.5t-301.5 -123.5zM465 692q149 0 240.5 95.5t91.5 242.5q0 143 -92 240.5t-240 97.5q-146 0 -236 -97.5t-90 -240.5q0 -147 89.5 -242.5t236.5 -95.5zM287 834
v401h211q79 0 123.5 -34.5t44.5 -96.5q0 -35 -16.5 -63.5t-41.5 -39.5v-6l78 -161h-156l-59 131h-33v-131h-151zM438 1055h35q41 0 41 37q0 41 -41 41h-35v-78z" />
    <glyph glyph-name="macron" unicode="&#xaf;" 
d="M203 1198v264h616v-264h-616z" />
    <glyph glyph-name="degree" unicode="&#xb0;" horiz-adv-x="843" 
d="M424 764q-160 0 -258 98.5t-98 239.5t98 238.5t258 97.5t258 -97.5t98 -238.5t-98 -239.5t-258 -98.5zM424 967q60 0 90.5 38.5t30.5 96.5q0 59 -30.5 97t-90.5 38t-90.5 -38t-30.5 -97q0 -58 30.5 -96.5t90.5 -38.5z" />
    <glyph glyph-name="acute" unicode="&#xb4;" 
d="M317 1186l123 325h422l-209 -325h-336z" />
    <glyph glyph-name="paragraph" unicode="&#xb6;" horiz-adv-x="1230" 
d="M547 -246v901h-37q-207 0 -324.5 100.5t-117.5 280.5q0 177 117 280t337 103h623v-1665h-230v1448h-139v-1448h-229z" />
    <glyph glyph-name="periodcentered" unicode="&#xb7;" horiz-adv-x="538" 
d="M68 461v358h403v-358h-403z" />
    <glyph glyph-name="cedilla" unicode="&#xb8;" 
d="M389 -467v152q103 6 143.5 20t40.5 45q0 28 -29 39t-106 14v197h183v-78q231 -8 231 -172q0 -103 -111.5 -156.5t-351.5 -60.5z" />
    <glyph glyph-name="ordmasculine" unicode="&#xba;" horiz-adv-x="1101" 
d="M551 432q-252 0 -386 127t-134 363v20q0 125 40.5 222.5t111.5 157t164 90t204 30.5q256 0 388 -123.5t132 -364.5v-20q0 -126 -40.5 -223t-111.5 -157.5t-164.5 -91t-203.5 -30.5zM553 684q65 0 95 49.5t30 184.5v28q0 78 -8.5 127.5t-26.5 74t-39.5 32.5t-54.5 8
q-43 0 -68.5 -18t-41 -69.5t-15.5 -142.5v-30q0 -99 16.5 -154t42.5 -72.5t70 -17.5z" />
    <glyph glyph-name="guillemotright" unicode="&#xbb;" horiz-adv-x="1120" 
d="M541 104l180 412l-180 414h344l182 -365v-96l-182 -365h-344zM57 104l181 412l-181 414h344l183 -365v-96l-183 -365h-344z" />
    <glyph glyph-name="onequarter" unicode="&#xbc;" horiz-adv-x="1832" 
d="M182 547v569l-147 -14v196l266 123h215v-874h-334zM201 -82l1044 1542h287l-1045 -1542h-286zM1358 0v186h-389v201l399 485h318v-475h112v-211h-112v-186h-328zM1225 391h143v182h-4l-139 -178v-4z" />
    <glyph glyph-name="onehalf" unicode="&#xbd;" horiz-adv-x="1884" 
d="M184 -82l1045 1542h287l-1045 -1542h-287zM182 547v569l-147 -14v196l266 123h215v-874h-334zM1165 0v217l160 129q82 68 117 111.5t35 93.5q0 90 -125 90q-85 0 -174 -33v223q139 58 309 58q169 0 257.5 -73t88.5 -206q0 -100 -53.5 -173t-159.5 -148l-74 -51v-5h291
v-233h-672z" />
    <glyph glyph-name="threequarters" unicode="&#xbe;" horiz-adv-x="1896" 
d="M342 532q-184 0 -301 52v202q101 -22 190 -22q77 0 109.5 16t32.5 49q0 64 -101 64h-112v190h106q109 0 109 64q0 59 -127 59q-76 0 -182 -18v198q140 50 299 50q155 0 245 -58t90 -168q0 -77 -45.5 -129t-122.5 -73v-4q97 -16 144 -64t47 -143q0 -124 -98.5 -194.5
t-282.5 -70.5zM285 -88l1044 1542h287l-1045 -1542h-286zM1421 0v186h-389v201l400 485h317v-475h113v-211h-113v-186h-328zM1288 391h144v182h-5l-139 -178v-4z" />
    <glyph glyph-name="questiondown" unicode="&#xbf;" horiz-adv-x="946" 
d="M524 -270q-230 0 -359.5 92t-129.5 289q0 92 23.5 157.5t62.5 107t110 89.5q115 76 145 106.5t30 83.5v33h360v-76q0 -101 -37.5 -158.5t-138.5 -127.5q-63 -43 -88 -75.5t-25 -80.5q0 -62 45 -87.5t152 -25.5q132 0 241 31v-297q-167 -61 -391 -61zM381 821v353h399
v-353h-399z" />
    <glyph glyph-name="Agrave" unicode="&#xc0;" horiz-adv-x="1476" 
d="M-6 0l491 1419h512l484 -1419h-484l-73 236h-435l-69 -236h-426zM698 948l-125 -418h263l-127 418h-11zM588 1485l-197 305h424l109 -305h-336z" />
    <glyph glyph-name="Aacute" unicode="&#xc1;" horiz-adv-x="1476" 
d="M-6 0l491 1419h512l484 -1419h-484l-73 236h-435l-69 -236h-426zM698 948l-125 -418h263l-127 418h-11zM553 1485l109 301h423l-196 -301h-336z" />
    <glyph glyph-name="Acircumflex" unicode="&#xc2;" horiz-adv-x="1476" 
d="M-6 0l491 1419h512l484 -1419h-484l-73 236h-435l-69 -236h-426zM698 948l-125 -418h263l-127 418h-11zM354 1485l213 284h342l213 -284h-297l-88 78l-86 -78h-297z" />
    <glyph glyph-name="Atilde" unicode="&#xc3;" horiz-adv-x="1476" 
d="M-6 0l491 1419h512l484 -1419h-484l-73 236h-435l-69 -236h-426zM698 948l-125 -418h263l-127 418h-11zM334 1487q9 83 34.5 143.5t63 94.5t79.5 49.5t91 15.5q60 0 136.5 -27.5t95.5 -27.5q44 0 61 49h244q-16 -158 -90 -229.5t-177 -71.5q-60 0 -137 27.5t-94 27.5
q-48 0 -61 -51h-246z" />
    <glyph glyph-name="Adieresis" unicode="&#xc4;" horiz-adv-x="1476" 
d="M-6 0l491 1419h512l484 -1419h-484l-73 236h-435l-69 -236h-426zM698 948l-125 -418h263l-127 418h-11zM797 1487v293h342v-293h-342zM338 1487v293h342v-293h-342z" />
    <glyph glyph-name="Aring" unicode="&#xc5;" horiz-adv-x="1476" 
d="M-6 0l491 1419h512l484 -1419h-484l-73 236h-435l-69 -236h-426zM698 948l-125 -418h263l-127 418h-11zM741 1458q-116 0 -189 69.5t-73 170.5q0 103 72.5 172t189.5 69q118 0 191.5 -69t73.5 -172q0 -101 -74 -170.5t-191 -69.5zM741 1610q39 0 61.5 24t22.5 64
q0 42 -22.5 66t-61.5 24q-38 0 -60 -24.5t-22 -65.5q0 -40 22 -64t60 -24z" />
    <glyph glyph-name="AE" unicode="&#xc6;" horiz-adv-x="1990" 
d="M-14 0l704 1419h1227v-329h-543v-207h422v-324h-422v-229h568v-330h-1031v256h-370l-117 -256h-438zM903 1065l-233 -516h241v516h-8z" />
    <glyph glyph-name="Ccedilla" unicode="&#xc7;" horiz-adv-x="1187" 
d="M748 -25q-23 0 -50 2v-55q232 -8 232 -172q0 -103 -111.5 -156.5t-351.5 -60.5v152q103 6 144.5 20t41.5 45q0 28 -29.5 39t-107.5 14v197q-479 106 -479 678v51q0 152 36.5 273.5t101.5 203t157 136t198.5 78.5t231.5 24q254 0 377 -55v-338q-121 41 -267 41
q-167 0 -247 -80t-80 -256v-60q0 -190 72 -279t247 -89q149 0 283 49v-332q-162 -70 -399 -70z" />
    <glyph glyph-name="Egrave" unicode="&#xc8;" horiz-adv-x="1191" 
d="M469 1485l-197 305h424l109 -305h-336zM88 0v1419h1030v-329h-559v-207h440v-324h-440v-229h586v-330h-1057z" />
    <glyph glyph-name="Eacute" unicode="&#xc9;" horiz-adv-x="1191" 
d="M436 1485l109 301h424l-197 -301h-336zM88 0v1419h1030v-329h-559v-207h440v-324h-440v-229h586v-330h-1057z" />
    <glyph glyph-name="Ecircumflex" unicode="&#xca;" horiz-adv-x="1191" 
d="M236 1485l213 284h342l213 -284h-297l-89 78l-86 -78h-296zM88 0v1419h1030v-329h-559v-207h440v-324h-440v-229h586v-330h-1057z" />
    <glyph glyph-name="Edieresis" unicode="&#xcb;" horiz-adv-x="1191" 
d="M88 0v1419h1030v-329h-559v-207h440v-324h-440v-229h586v-330h-1057zM670 1487v293h342v-293h-342zM211 1487v293h342v-293h-342z" />
    <glyph glyph-name="Igrave" unicode="&#xcc;" horiz-adv-x="667" 
d="M96 0v1419h475v-1419h-475zM182 1485l-196 305h424l108 -305h-336z" />
    <glyph glyph-name="Iacute" unicode="&#xcd;" horiz-adv-x="667" 
d="M96 0v1419h475v-1419h-475zM150 1485l108 301h424l-197 -301h-335z" />
    <glyph glyph-name="Icircumflex" unicode="&#xce;" horiz-adv-x="667" 
d="M96 0v1419h475v-1419h-475zM-51 1485l213 284h342l213 -284h-297l-88 78l-86 -78h-297z" />
    <glyph glyph-name="Idieresis" unicode="&#xcf;" horiz-adv-x="667" 
d="M379 1487v293h309v-293h-309zM-20 1487v293h307v-293h-307zM96 0v1419h475v-1419h-475z" />
    <glyph glyph-name="Eth" unicode="&#xd0;" horiz-adv-x="1447" 
d="M8 555v311h88v553h590q173 0 303 -36t226 -114.5t145 -210.5t49 -317v-49q0 -182 -51 -316.5t-147.5 -216t-227 -120.5t-297.5 -39h-590v555h-88zM565 326h119q122 0 179 77t57 273v74q0 101 -15.5 169t-48 106t-75 53.5t-103.5 15.5h-113v-228h205v-311h-205v-229z" />
    <glyph glyph-name="Ntilde" unicode="&#xd1;" horiz-adv-x="1478" 
d="M377 1487q9 83 34.5 143.5t63 94.5t79.5 49.5t91 15.5q60 0 136.5 -27.5t95.5 -27.5q44 0 61 49h244q-16 -158 -90 -229.5t-177 -71.5q-60 0 -137 27.5t-94 27.5q-48 0 -61 -51h-246zM88 0v1419h508l385 -682h8v682h402v-1419h-447l-446 782h-9v-782h-401z" />
    <glyph glyph-name="Ograve" unicode="&#xd2;" horiz-adv-x="1495" 
d="M598 1485l-197 305h424l109 -305h-336zM741 -25q-116 0 -218 23.5t-192.5 77.5t-154.5 134.5t-101.5 200.5t-37.5 269v49q0 153 41 276.5t109 204t162 134.5t194.5 77t210.5 23q117 0 219 -23.5t192 -77.5t154.5 -134t101.5 -199.5t37 -268.5v-49q0 -154 -40.5 -277.5
t-109 -204.5t-162 -135t-194 -77t-211.5 -23zM750 315q105 0 156.5 82.5t51.5 270.5v73q0 139 -24 219.5t-68 112t-118 31.5q-105 0 -158 -81.5t-53 -270.5v-72q0 -109 14.5 -182.5t44 -112.5t66 -54.5t88.5 -15.5z" />
    <glyph glyph-name="Oacute" unicode="&#xd3;" horiz-adv-x="1495" 
d="M563 1485l109 301h424l-197 -301h-336zM741 -25q-116 0 -218 23.5t-192.5 77.5t-154.5 134.5t-101.5 200.5t-37.5 269v49q0 153 41 276.5t109 204t162 134.5t194.5 77t210.5 23q117 0 219 -23.5t192 -77.5t154.5 -134t101.5 -199.5t37 -268.5v-49q0 -154 -40.5 -277.5
t-109 -204.5t-162 -135t-194 -77t-211.5 -23zM750 315q105 0 156.5 82.5t51.5 270.5v73q0 139 -24 219.5t-68 112t-118 31.5q-105 0 -158 -81.5t-53 -270.5v-72q0 -109 14.5 -182.5t44 -112.5t66 -54.5t88.5 -15.5z" />
    <glyph glyph-name="Ocircumflex" unicode="&#xd4;" horiz-adv-x="1495" 
d="M365 1485l213 284h342l213 -284h-297l-88 78l-86 -78h-297zM741 -25q-116 0 -218 23.5t-192.5 77.5t-154.5 134.5t-101.5 200.5t-37.5 269v49q0 153 41 276.5t109 204t162 134.5t194.5 77t210.5 23q117 0 219 -23.5t192 -77.5t154.5 -134t101.5 -199.5t37 -268.5v-49
q0 -154 -40.5 -277.5t-109 -204.5t-162 -135t-194 -77t-211.5 -23zM750 315q105 0 156.5 82.5t51.5 270.5v73q0 139 -24 219.5t-68 112t-118 31.5q-105 0 -158 -81.5t-53 -270.5v-72q0 -109 14.5 -182.5t44 -112.5t66 -54.5t88.5 -15.5z" />
    <glyph glyph-name="Otilde" unicode="&#xd5;" horiz-adv-x="1495" 
d="M344 1487q9 83 34.5 143.5t63 94.5t79.5 49.5t91 15.5q60 0 136.5 -27.5t95.5 -27.5q44 0 61 49h244q-16 -158 -89.5 -229.5t-176.5 -71.5q-60 0 -137.5 27.5t-94.5 27.5q-48 0 -61 -51h-246zM741 -25q-116 0 -218 23.5t-192.5 77.5t-154.5 134.5t-101.5 200.5t-37.5 269
v49q0 153 41 276.5t109 204t162 134.5t194.5 77t210.5 23q117 0 219 -23.5t192 -77.5t154.5 -134t101.5 -199.5t37 -268.5v-49q0 -154 -40.5 -277.5t-109 -204.5t-162 -135t-194 -77t-211.5 -23zM750 315q105 0 156.5 82.5t51.5 270.5v73q0 139 -24 219.5t-68 112t-118 31.5
q-105 0 -158 -81.5t-53 -270.5v-72q0 -109 14.5 -182.5t44 -112.5t66 -54.5t88.5 -15.5z" />
    <glyph glyph-name="Odieresis" unicode="&#xd6;" horiz-adv-x="1495" 
d="M807 1487v293h342v-293h-342zM348 1487v293h342v-293h-342zM741 -25q-116 0 -218 23.5t-192.5 77.5t-154.5 134.5t-101.5 200.5t-37.5 269v49q0 153 41 276.5t109 204t162 134.5t194.5 77t210.5 23q117 0 219 -23.5t192 -77.5t154.5 -134t101.5 -199.5t37 -268.5v-49
q0 -154 -40.5 -277.5t-109 -204.5t-162 -135t-194 -77t-211.5 -23zM750 315q105 0 156.5 82.5t51.5 270.5v73q0 139 -24 219.5t-68 112t-118 31.5q-105 0 -158 -81.5t-53 -270.5v-72q0 -109 14.5 -182.5t44 -112.5t66 -54.5t88.5 -15.5z" />
    <glyph glyph-name="multiply" unicode="&#xd7;" horiz-adv-x="1134" 
d="M309 195l-229 229l254 252l-254 252l229 227l256 -252l258 252l230 -227l-256 -252l256 -252l-230 -229l-258 251z" />
    <glyph glyph-name="Oslash" unicode="&#xd8;" horiz-adv-x="1495" 
d="M741 -25q-242 0 -407 99l-64 -74h-270l178 207q-141 178 -141 473v49q0 153 41 276.5t109 204t162 134.5t194.5 77t210.5 23q232 0 399 -96l61 71h271l-174 -202q147 -177 147 -476v-49q0 -154 -40.5 -277.5t-109 -204.5t-162 -135t-194 -77t-211.5 -23zM750 305
q114 0 172.5 84.5t58.5 276.5v94q0 13 -1 35.5t-1 31.5l-395 -460q54 -62 166 -62zM516 604l389 455q-55 55 -157 55q-114 0 -173 -84t-59 -276v-150z" />
    <glyph glyph-name="Ugrave" unicode="&#xd9;" horiz-adv-x="1423" 
d="M590 1485l-197 305h424l109 -305h-336zM729 -25q-649 0 -649 539v905h475v-891q0 -105 45 -157t141 -52q95 0 139 52t44 159v889h422v-905q0 -539 -617 -539z" />
    <glyph glyph-name="Uacute" unicode="&#xda;" horiz-adv-x="1423" 
d="M555 1485l109 301h423l-196 -301h-336zM729 -25q-649 0 -649 539v905h475v-891q0 -105 45 -157t141 -52q95 0 139 52t44 159v889h422v-905q0 -539 -617 -539z" />
    <glyph glyph-name="Ucircumflex" unicode="&#xdb;" horiz-adv-x="1423" 
d="M356 1485l213 284h342l213 -284h-297l-88 78l-86 -78h-297zM729 -25q-649 0 -649 539v905h475v-891q0 -105 45 -157t141 -52q95 0 139 52t44 159v889h422v-905q0 -539 -617 -539z" />
    <glyph glyph-name="Udieresis" unicode="&#xdc;" horiz-adv-x="1423" 
d="M729 -25q-649 0 -649 539v905h475v-891q0 -105 45 -157t141 -52q95 0 139 52t44 159v889h422v-905q0 -539 -617 -539zM799 1487v293h342v-293h-342zM340 1487v293h342v-293h-342z" />
    <glyph glyph-name="Yacute" unicode="&#xdd;" horiz-adv-x="1363" 
d="M444 0v557l-446 862h506l211 -450h6l211 450h432l-442 -862v-557h-478zM532 1485l109 301h424l-197 -301h-336z" />
    <glyph glyph-name="Thorn" unicode="&#xde;" horiz-adv-x="1339" 
d="M88 0v1419h477v-213h166q303 0 443.5 -114t140.5 -342q0 -241 -141 -361.5t-435 -120.5h-174v-268h-477zM565 555h115q90 0 128 40t38 132q0 95 -38 129.5t-118 34.5h-125v-336z" />
    <glyph glyph-name="germandbls" unicode="&#xdf;" horiz-adv-x="1378" 
d="M922 -16q-202 0 -332 47v270q13 -3 52 -12.5t59.5 -13.5t57 -8.5t70.5 -4.5q113 0 113 62q0 26 -17.5 40.5t-66.5 34.5l-55 23q-118 49 -167.5 117.5t-49.5 177.5q0 57 21.5 112t53 97t62.5 80t52.5 75.5t21.5 69.5q0 98 -123 98q-180 0 -180 -213v-1036h-424v1067
q0 123 44 213.5t127 145.5t195 81.5t256 26.5q269 0 402 -83t133 -255q0 -58 -26 -113t-63.5 -94.5t-75 -73.5t-63.5 -63t-26 -49q0 -28 16.5 -43t63.5 -37l57 -23q131 -57 187.5 -136t56.5 -218q0 -171 -110.5 -266.5t-321.5 -95.5z" />
    <glyph glyph-name="agrave" unicode="&#xe0;" horiz-adv-x="1105" 
d="M371 -20q-159 0 -252.5 79.5t-93.5 233.5q0 72 20.5 127t55.5 91.5t91 62.5t115.5 41t141.5 26l169 23v32q0 72 -41.5 95.5t-154.5 23.5q-163 0 -303 -35v277q170 67 465 67q224 0 340 -79t116 -265v-780h-354l-27 82h-12q-65 -102 -276 -102zM522 238q60 0 96 32v187
l-88 -6q-56 -3 -80 -28.5t-24 -80.5q0 -104 96 -104zM418 1186l-209 325h422l123 -325h-336z" />
    <glyph glyph-name="aacute" unicode="&#xe1;" horiz-adv-x="1105" 
d="M371 -20q-159 0 -252.5 79.5t-93.5 233.5q0 72 20.5 127t55.5 91.5t91 62.5t115.5 41t141.5 26l169 23v32q0 72 -41.5 95.5t-154.5 23.5q-163 0 -303 -35v277q170 67 465 67q224 0 340 -79t116 -265v-780h-354l-27 82h-12q-65 -102 -276 -102zM522 238q60 0 96 32v187
l-88 -6q-56 -3 -80 -28.5t-24 -80.5q0 -104 96 -104zM385 1186l123 325h422l-209 -325h-336z" />
    <glyph glyph-name="acircumflex" unicode="&#xe2;" horiz-adv-x="1105" 
d="M371 -20q-159 0 -252.5 79.5t-93.5 233.5q0 72 20.5 127t55.5 91.5t91 62.5t115.5 41t141.5 26l169 23v32q0 72 -41.5 95.5t-154.5 23.5q-163 0 -303 -35v277q170 67 465 67q224 0 340 -79t116 -265v-780h-354l-27 82h-12q-65 -102 -276 -102zM522 238q60 0 96 32v187
l-88 -6q-56 -3 -80 -28.5t-24 -80.5q0 -104 96 -104zM186 1186l215 325h342l215 -325h-299l-88 100l-86 -100h-299z" />
    <glyph glyph-name="atilde" unicode="&#xe3;" horiz-adv-x="1105" 
d="M371 -20q-159 0 -252.5 79.5t-93.5 233.5q0 72 20.5 127t55.5 91.5t91 62.5t115.5 41t141.5 26l169 23v32q0 72 -41.5 95.5t-154.5 23.5q-163 0 -303 -35v277q170 67 465 67q224 0 340 -79t116 -265v-780h-354l-27 82h-12q-65 -102 -276 -102zM522 238q60 0 96 32v187
l-88 -6q-56 -3 -80 -28.5t-24 -80.5q0 -104 96 -104zM170 1200q18 161 92.5 239.5t175.5 78.5q60 0 136.5 -31t95.5 -31q45 0 61 57h244q-16 -161 -90.5 -239t-175.5 -78q-60 0 -137.5 30.5t-94.5 30.5q-48 0 -61 -57h-246z" />
    <glyph glyph-name="adieresis" unicode="&#xe4;" horiz-adv-x="1105" 
d="M371 -20q-159 0 -252.5 79.5t-93.5 233.5q0 72 20.5 127t55.5 91.5t91 62.5t115.5 41t141.5 26l169 23v32q0 72 -41.5 95.5t-154.5 23.5q-163 0 -303 -35v277q170 67 465 67q224 0 340 -79t116 -265v-780h-354l-27 82h-12q-65 -102 -276 -102zM522 238q60 0 96 32v187
l-88 -6q-56 -3 -80 -28.5t-24 -80.5q0 -104 96 -104zM618 1196v305h343v-305h-343zM172 1196v305h342v-305h-342z" />
    <glyph glyph-name="aring" unicode="&#xe5;" horiz-adv-x="1105" 
d="M371 -20q-159 0 -252.5 79.5t-93.5 233.5q0 72 20.5 127t55.5 91.5t91 62.5t115.5 41t141.5 26l169 23v32q0 72 -41.5 95.5t-154.5 23.5q-163 0 -303 -35v277q170 67 465 67q224 0 340 -79t116 -265v-780h-354l-27 82h-12q-65 -102 -276 -102zM522 238q60 0 96 32v187
l-88 -6q-56 -3 -80 -28.5t-24 -80.5q0 -104 96 -104zM569 1178q-116 0 -189 70t-73 171q0 102 73 172t189 70q118 0 191.5 -70t73.5 -172q0 -101 -74 -171t-191 -70zM569 1329q39 0 61.5 25t22.5 65t-22.5 65t-61.5 25q-38 0 -60 -25t-22 -65t22 -65t60 -25z" />
    <glyph glyph-name="ae" unicode="&#xe6;" horiz-adv-x="1724" 
d="M379 -20q-165 0 -259.5 79.5t-94.5 233.5q0 72 21 126.5t55 90t90.5 61t115.5 39t142 25.5l169 22v39q0 72 -41.5 95.5t-154.5 23.5q-163 0 -303 -35v277q170 67 448 67q111 0 183 -24.5t112 -81.5q106 106 324 106q138 0 237 -39t158 -116.5t86 -183.5t27 -248v-84h-662
q18 -105 84 -143t203 -38q162 0 323 60v-256q-168 -96 -438 -96q-303 0 -452 143q-127 -143 -373 -143zM1169 852q-59 0 -94 -40.5t-45 -141.5h262q0 99 -29.5 140.5t-93.5 41.5zM645 295q-24 73 -33 164l-82 -4q-56 -1 -80 -28.5t-24 -82.5q0 -106 96 -106q69 0 123 57z
" />
    <glyph glyph-name="ccedilla" unicode="&#xe7;" horiz-adv-x="976" 
d="M600 -20h-35v-58q230 -8 230 -172q0 -103 -111.5 -156.5t-351.5 -60.5v152q103 6 144.5 20t41.5 45q0 28 -29 39t-106 14v203q-352 94 -352 529v22q0 276 152.5 421.5t434.5 145.5q210 0 312 -51v-301q-98 39 -217 39q-240 0 -240 -229v-27q0 -139 54.5 -200.5
t181.5 -61.5q98 0 227 39v-283q-123 -69 -336 -69z" />
    <glyph glyph-name="egrave" unicode="&#xe8;" horiz-adv-x="1155" 
d="M635 -20q-604 0 -604 563v24q0 251 150.5 404t414.5 153q284 0 407 -148.5t123 -438.5v-86h-663q18 -103 84 -141t203 -38q159 0 325 60v-256q-172 -96 -440 -96zM451 1186l-209 325h422l122 -325h-335zM600 852q-59 0 -95 -41t-46 -143h264q0 101 -29 142.5t-94 41.5z
" />
    <glyph glyph-name="eacute" unicode="&#xe9;" horiz-adv-x="1155" 
d="M635 -20q-604 0 -604 563v24q0 251 150.5 404t414.5 153q284 0 407 -148.5t123 -438.5v-86h-663q18 -103 84 -141t203 -38q159 0 325 60v-256q-172 -96 -440 -96zM418 1186l123 325h422l-209 -325h-336zM600 852q-59 0 -95 -41t-46 -143h264q0 101 -29 142.5t-94 41.5z
" />
    <glyph glyph-name="ecircumflex" unicode="&#xea;" horiz-adv-x="1155" 
d="M635 -20q-604 0 -604 563v24q0 251 150.5 404t414.5 153q284 0 407 -148.5t123 -438.5v-86h-663q18 -103 84 -141t203 -38q159 0 325 60v-256q-172 -96 -440 -96zM217 1186l215 325h342l215 -325h-299l-88 100l-86 -100h-299zM600 852q-59 0 -95 -41t-46 -143h264
q0 101 -29 142.5t-94 41.5z" />
    <glyph glyph-name="edieresis" unicode="&#xeb;" horiz-adv-x="1155" 
d="M635 -20q-604 0 -604 563v24q0 251 150.5 404t414.5 153q284 0 407 -148.5t123 -438.5v-86h-663q18 -103 84 -141t203 -38q159 0 325 60v-256q-172 -96 -440 -96zM209 1196v305h342v-305h-342zM655 1196v305h342v-305h-342zM600 852q-59 0 -95 -41t-46 -143h264
q0 101 -29 142.5t-94 41.5z" />
    <glyph glyph-name="igrave" unicode="&#xec;" horiz-adv-x="575" 
d="M76 0v1104h424v-1104h-424zM133 1186l-209 325h422l123 -325h-336z" />
    <glyph glyph-name="iacute" unicode="&#xed;" horiz-adv-x="575" 
d="M102 1186l123 325h422l-209 -325h-336zM76 0v1104h424v-1104h-424z" />
    <glyph glyph-name="icircumflex" unicode="&#xee;" horiz-adv-x="575" 
d="M76 0v1104h424v-1104h-424zM-76 1186l191 325h344l192 -325h-295l-69 100l-70 -100h-293z" />
    <glyph glyph-name="idieresis" unicode="&#xef;" horiz-adv-x="575" 
d="M332 1196v305h307v-305h-307zM-68 1196v305h310v-305h-310zM76 0v1104h424v-1104h-424z" />
    <glyph glyph-name="eth" unicode="&#xf0;" horiz-adv-x="1230" 
d="M193 1280l206 55q-89 82 -221 178h484q76 -49 112 -75l221 59l37 -149l-114 -31q282 -279 282 -672v-53q0 -307 -154.5 -459.5t-431.5 -152.5q-287 0 -435 141t-148 416v22q0 111 24.5 200.5t66 150.5t99.5 102t123.5 59.5t138.5 18.5q87 0 144 -33h10q-45 75 -113 153
l-293 -80zM764 594q0 104 -27 215q-52 27 -112 27q-44 0 -72 -10t-48.5 -38.5t-29 -79.5t-8.5 -133v-34q0 -87 10 -143.5t30.5 -85.5t45.5 -39.5t63 -10.5q51 0 81 21t48.5 83.5t18.5 172.5v55z" />
    <glyph glyph-name="ntilde" unicode="&#xf1;" horiz-adv-x="1226" 
d="M70 0v1104h411v-98h11q135 118 342 118q158 0 242.5 -72t84.5 -231v-821h-424v702q0 53 -27 75t-85 22t-131 -25v-774h-424zM225 1200q18 161 93 239.5t176 78.5q60 0 136 -31t95 -31q45 0 61 57h244q-16 -161 -90.5 -239t-175.5 -78q-60 0 -137.5 30.5t-94.5 30.5
q-48 0 -61 -57h-246z" />
    <glyph glyph-name="ograve" unicode="&#xf2;" horiz-adv-x="1230" 
d="M614 -20q-285 0 -434 144t-149 411v22q0 143 45 253t125 177.5t184 102t229 34.5q289 0 437.5 -140t148.5 -413v-22q0 -143 -45 -253.5t-125.5 -178.5t-185.5 -102.5t-230 -34.5zM616 262q50 0 80.5 20.5t49 81t18.5 166.5v33q0 90 -10 147.5t-32 85.5t-46.5 37t-63.5 9
q-49 0 -79 -20.5t-48 -80.5t-18 -166v-34q0 -87 10 -143.5t31 -85.5t46 -39.5t62 -10.5zM461 1186l-209 325h422l123 -325h-336z" />
    <glyph glyph-name="oacute" unicode="&#xf3;" horiz-adv-x="1230" 
d="M430 1186l123 325h422l-209 -325h-336zM614 -20q-285 0 -434 144t-149 411v22q0 143 45 253t125 177.5t184 102t229 34.5q289 0 437.5 -140t148.5 -413v-22q0 -143 -45 -253.5t-125.5 -178.5t-185.5 -102.5t-230 -34.5zM616 262q50 0 80.5 20.5t49 81t18.5 166.5v33
q0 90 -10 147.5t-32 85.5t-46.5 37t-63.5 9q-49 0 -79 -20.5t-48 -80.5t-18 -166v-34q0 -87 10 -143.5t31 -85.5t46 -39.5t62 -10.5z" />
    <glyph glyph-name="ocircumflex" unicode="&#xf4;" horiz-adv-x="1230" 
d="M229 1186l215 325h342l215 -325h-299l-88 100l-86 -100h-299zM614 -20q-285 0 -434 144t-149 411v22q0 143 45 253t125 177.5t184 102t229 34.5q289 0 437.5 -140t148.5 -413v-22q0 -143 -45 -253.5t-125.5 -178.5t-185.5 -102.5t-230 -34.5zM616 262q50 0 80.5 20.5
t49 81t18.5 166.5v33q0 90 -10 147.5t-32 85.5t-46.5 37t-63.5 9q-49 0 -79 -20.5t-48 -80.5t-18 -166v-34q0 -87 10 -143.5t31 -85.5t46 -39.5t62 -10.5z" />
    <glyph glyph-name="otilde" unicode="&#xf5;" horiz-adv-x="1230" 
d="M614 -20q-285 0 -434 144t-149 411v22q0 143 45 253t125 177.5t184 102t229 34.5q289 0 437.5 -140t148.5 -413v-22q0 -143 -45 -253.5t-125.5 -178.5t-185.5 -102.5t-230 -34.5zM616 262q50 0 80.5 20.5t49 81t18.5 166.5v33q0 90 -10 147.5t-32 85.5t-46.5 37t-63.5 9
q-49 0 -79 -20.5t-48 -80.5t-18 -166v-34q0 -87 10 -143.5t31 -85.5t46 -39.5t62 -10.5zM211 1200q18 161 92.5 239.5t175.5 78.5q60 0 136.5 -31t95.5 -31q45 0 61 57h244q-16 -161 -90.5 -239t-175.5 -78q-60 0 -137.5 30.5t-94.5 30.5q-48 0 -61 -57h-246z" />
    <glyph glyph-name="odieresis" unicode="&#xf6;" horiz-adv-x="1230" 
d="M668 1196v305h342v-305h-342zM221 1196v305h342v-305h-342zM614 -20q-285 0 -434 144t-149 411v22q0 143 45 253t125 177.5t184 102t229 34.5q289 0 437.5 -140t148.5 -413v-22q0 -143 -45 -253.5t-125.5 -178.5t-185.5 -102.5t-230 -34.5zM616 262q50 0 80.5 20.5t49 81
t18.5 166.5v33q0 90 -10 147.5t-32 85.5t-46.5 37t-63.5 9q-49 0 -79 -20.5t-48 -80.5t-18 -166v-34q0 -87 10 -143.5t31 -85.5t46 -39.5t62 -10.5z" />
    <glyph glyph-name="divide" unicode="&#xf7;" horiz-adv-x="1077" 
d="M49 543v321h977v-321h-977zM344 115v350h389v-350h-389zM344 942v350h389v-350h-389z" />
    <glyph glyph-name="oslash" unicode="&#xf8;" horiz-adv-x="1230" 
d="M614 -20q-204 0 -333 69l-45 -49h-236l143 162q-112 136 -112 373v22q0 143 45 253t125 177.5t184 102t229 34.5q195 0 328 -65l41 45h236l-136 -154q117 -135 117 -379v-22q0 -143 -45 -253.5t-125.5 -178.5t-185.5 -102.5t-230 -34.5zM616 248q56 0 91 22.5t57 86
t22 173.5v86l-290 -323q40 -45 120 -45zM444 498l285 321q-37 37 -117 37q-84 0 -126 -60.5t-42 -220.5v-77z" />
    <glyph glyph-name="ugrave" unicode="&#xf9;" horiz-adv-x="1216" 
d="M403 -20q-337 0 -337 319v805h423v-711q0 -54 26 -76t83 -22q61 0 125 27v782h424v-1104h-375l-27 98h-10q-76 -61 -153.5 -89.5t-178.5 -28.5zM459 1186l-209 325h422l123 -325h-336z" />
    <glyph glyph-name="uacute" unicode="&#xfa;" horiz-adv-x="1216" 
d="M438 1186l123 325h422l-209 -325h-336zM403 -20q-337 0 -337 319v805h423v-711q0 -54 26 -76t83 -22q61 0 125 27v782h424v-1104h-375l-27 98h-10q-76 -61 -153.5 -89.5t-178.5 -28.5z" />
    <glyph glyph-name="ucircumflex" unicode="&#xfb;" horiz-adv-x="1216" 
d="M227 1186l215 325h342l215 -325h-299l-88 100l-86 -100h-299zM403 -20q-337 0 -337 319v805h423v-711q0 -54 26 -76t83 -22q61 0 125 27v782h424v-1104h-375l-27 98h-10q-76 -61 -153.5 -89.5t-178.5 -28.5z" />
    <glyph glyph-name="udieresis" unicode="&#xfc;" horiz-adv-x="1216" 
d="M666 1196v305h342v-305h-342zM219 1196v305h342v-305h-342zM403 -20q-337 0 -337 319v805h423v-711q0 -54 26 -76t83 -22q61 0 125 27v782h424v-1104h-375l-27 98h-10q-76 -61 -153.5 -89.5t-178.5 -28.5z" />
    <glyph glyph-name="yacute" unicode="&#xfd;" horiz-adv-x="1200" 
d="M332 -406q-63 0 -133 9.5t-105 23.5v281q75 -14 121 -14q74 0 114.5 21.5t55.5 66.5l14 45l-401 1077h440l180 -598h9l180 598h395l-416 -1202q-57 -165 -161.5 -236.5t-292.5 -71.5zM436 1186l123 325h422l-209 -325h-336z" />
    <glyph glyph-name="thorn" unicode="&#xfe;" horiz-adv-x="1247" 
d="M70 -399v1912h424v-497h10q117 108 301 108q68 0 125.5 -15.5t110.5 -53.5t90 -97t59 -151.5t22 -210.5v-21q0 -164 -37 -281.5t-108 -185t-162 -98t-209 -30.5q-122 0 -202 32v-411h-424zM608 262q56 0 90.5 20t56 80t21.5 166v31q0 75 -10.5 124.5t-32.5 75.5t-49.5 36
t-67.5 10q-70 0 -122 -31v-483q45 -29 114 -29z" />
    <glyph glyph-name="ydieresis" unicode="&#xff;" horiz-adv-x="1200" 
d="M332 -406q-63 0 -133 9.5t-105 23.5v281q75 -14 121 -14q74 0 114.5 21.5t55.5 66.5l14 45l-401 1077h440l180 -598h9l180 598h395l-416 -1202q-57 -165 -161.5 -236.5t-292.5 -71.5zM674 1196v305h342v-305h-342zM227 1196v305h342v-305h-342z" />
    <glyph glyph-name="Amacron" unicode="&#x100;" horiz-adv-x="1476" 
d="M-6 0l491 1419h512l484 -1419h-484l-73 236h-435l-69 -236h-426zM698 948l-125 -418h263l-127 418h-11zM414 1489v264h649v-264h-649z" />
    <glyph glyph-name="amacron" unicode="&#x101;" horiz-adv-x="1105" 
d="M371 -20q-159 0 -252.5 79.5t-93.5 233.5q0 72 20.5 127t55.5 91.5t91 62.5t115.5 41t141.5 26l169 23v32q0 72 -41.5 95.5t-154.5 23.5q-163 0 -303 -35v277q170 67 465 67q224 0 340 -79t116 -265v-780h-354l-27 82h-12q-65 -102 -276 -102zM522 238q60 0 96 32v187
l-88 -6q-56 -3 -80 -28.5t-24 -80.5q0 -104 96 -104zM264 1198v264h617v-264h-617z" />
    <glyph glyph-name="Abreve" unicode="&#x102;" horiz-adv-x="1476" 
d="M-6 0l491 1419h512l484 -1419h-484l-73 236h-435l-69 -236h-426zM698 948l-125 -418h263l-127 418h-11zM737 1479q-157 0 -249 81t-97 214h264q10 -76 82 -76q74 0 84 76h264q-5 -133 -97.5 -214t-250.5 -81z" />
    <glyph glyph-name="abreve" unicode="&#x103;" horiz-adv-x="1105" 
d="M371 -20q-159 0 -252.5 79.5t-93.5 233.5q0 72 20.5 127t55.5 91.5t91 62.5t115.5 41t141.5 26l169 23v32q0 72 -41.5 95.5t-154.5 23.5q-163 0 -303 -35v277q170 67 465 67q224 0 340 -79t116 -265v-780h-354l-27 82h-12q-65 -102 -276 -102zM522 238q60 0 96 32v187
l-88 -6q-56 -3 -80 -28.5t-24 -80.5q0 -104 96 -104zM571 1194q-157 0 -249 86t-97 225h264q10 -73 82 -73q74 0 84 73h265q-5 -139 -98 -225t-251 -86z" />
    <glyph glyph-name="Aogonek" unicode="&#x104;" horiz-adv-x="1476" 
d="M1268 -408q-119 0 -186.5 50t-67.5 131q0 135 188 227h-203l-75 238h-435l-69 -238h-426l491 1419h512l482 -1407q-142 -77 -142 -139q0 -53 62 -53q15 0 51 6v-203q-72 -31 -182 -31zM698 948l-125 -418h263l-127 418h-11z" />
    <glyph glyph-name="aogonek" unicode="&#x105;" horiz-adv-x="1105" 
d="M862 -408q-119 0 -186.5 50t-67.5 131q0 136 178 227h-100l-27 82h-12q-65 -102 -276 -102q-159 0 -252.5 79.5t-93.5 233.5q0 72 20.5 127t55.5 91.5t91 62.5t115.5 41t141.5 26l169 23v32q0 72 -41.5 95.5t-154.5 23.5q-163 0 -303 -35v277q170 67 465 67
q224 0 340 -79t116 -265v-772q-108 -70 -108 -135q0 -53 61 -53q15 0 51 6v-203q-72 -31 -182 -31zM522 238q60 0 96 32v187l-88 -6q-56 -3 -80 -28.5t-24 -80.5q0 -104 96 -104z" />
    <glyph glyph-name="Cacute" unicode="&#x106;" horiz-adv-x="1187" 
d="M748 -25q-344 0 -527.5 174.5t-183.5 528.5v51q0 152 36.5 273.5t101.5 203t157 136t198.5 78.5t231.5 24q254 0 377 -55v-338q-121 41 -267 41q-167 0 -247 -80t-80 -256v-60q0 -190 72 -279t247 -89q149 0 283 49v-332q-162 -70 -399 -70zM537 1485l108 301h424
l-197 -301h-335z" />
    <glyph glyph-name="cacute" unicode="&#x107;" horiz-adv-x="976" 
d="M375 1186l123 325h422l-209 -325h-336zM600 -20q-282 0 -425.5 142t-143.5 413v22q0 276 152.5 421.5t434.5 145.5q210 0 312 -51v-301q-98 39 -217 39q-240 0 -240 -229v-27q0 -139 54.5 -200.5t181.5 -61.5q98 0 227 39v-283q-123 -69 -336 -69z" />
    <glyph glyph-name="Ccircumflex" unicode="&#x108;" horiz-adv-x="1187" 
d="M338 1485l213 284h342l213 -284h-297l-88 78l-86 -78h-297zM748 -25q-344 0 -527.5 174.5t-183.5 528.5v51q0 152 36.5 273.5t101.5 203t157 136t198.5 78.5t231.5 24q254 0 377 -55v-338q-121 41 -267 41q-167 0 -247 -80t-80 -256v-60q0 -190 72 -279t247 -89
q149 0 283 49v-332q-162 -70 -399 -70z" />
    <glyph glyph-name="ccircumflex" unicode="&#x109;" horiz-adv-x="976" 
d="M174 1186l215 325h342l215 -325h-299l-88 100l-86 -100h-299zM600 -20q-282 0 -425.5 142t-143.5 413v22q0 276 152.5 421.5t434.5 145.5q210 0 312 -51v-301q-98 39 -217 39q-240 0 -240 -229v-27q0 -139 54.5 -200.5t181.5 -61.5q98 0 227 39v-283q-123 -69 -336 -69z
" />
    <glyph glyph-name="Cdotaccent" unicode="&#x10a;" horiz-adv-x="1187" 
d="M748 -25q-344 0 -527.5 174.5t-183.5 528.5v51q0 152 36.5 273.5t101.5 203t157 136t198.5 78.5t231.5 24q254 0 377 -55v-338q-121 41 -267 41q-167 0 -247 -80t-80 -256v-60q0 -190 72 -279t247 -89q149 0 283 49v-332q-162 -70 -399 -70zM518 1487v293h408v-293h-408z
" />
    <glyph glyph-name="cdotaccent" unicode="&#x10b;" horiz-adv-x="976" 
d="M600 -20q-282 0 -425.5 142t-143.5 413v22q0 276 152.5 421.5t434.5 145.5q210 0 312 -51v-301q-98 39 -217 39q-240 0 -240 -229v-27q0 -139 54.5 -200.5t181.5 -61.5q98 0 227 39v-283q-123 -69 -336 -69zM348 1196v305h428v-305h-428z" />
    <glyph glyph-name="Ccaron" unicode="&#x10c;" horiz-adv-x="1187" 
d="M1096 1769l-213 -284h-342l-213 284h297l88 -77l86 77h297zM748 -25q-344 0 -527.5 174.5t-183.5 528.5v51q0 152 36.5 273.5t101.5 203t157 136t198.5 78.5t231.5 24q254 0 377 -55v-338q-121 41 -267 41q-167 0 -247 -80t-80 -256v-60q0 -190 72 -279t247 -89
q149 0 283 49v-332q-162 -70 -399 -70z" />
    <glyph glyph-name="ccaron" unicode="&#x10d;" horiz-adv-x="976" 
d="M946 1511l-215 -325h-342l-215 325h299l88 -102l86 102h299zM600 -20q-282 0 -425.5 142t-143.5 413v22q0 276 152.5 421.5t434.5 145.5q210 0 312 -51v-301q-98 39 -217 39q-240 0 -240 -229v-27q0 -139 54.5 -200.5t181.5 -61.5q98 0 227 39v-283q-123 -69 -336 -69z
" />
    <glyph glyph-name="Dcaron" unicode="&#x10e;" horiz-adv-x="1439" 
d="M1071 1769l-213 -284h-342l-213 284h297l88 -77l86 77h297zM88 0v1419h588q174 0 304.5 -36t226.5 -114.5t145 -210.5t49 -317v-49q0 -182 -51 -316.5t-147.5 -216t-227 -120.5t-297.5 -39h-590zM565 326h101q81 0 131 30.5t77 108t27 211.5v74q0 101 -15 169t-47 106
t-74 53.5t-103 15.5h-97v-768z" />
    <glyph glyph-name="dcaron" unicode="&#x10f;" horiz-adv-x="1247" 
d="M1468 1176h-221l13 337h272zM463 -20q-92 0 -168 32t-135 96t-92 170t-33 246v23q0 124 24.5 221t68 163.5t107 110t139.5 63t167 19.5q127 0 213 -39v428h422v-1513h-367l-27 84h-10q-116 -104 -309 -104zM631 285q70 0 123 34v496q-52 29 -115 29q-84 0 -126 -59
t-42 -212v-32q0 -77 11 -128t33 -78.5t49.5 -38.5t66.5 -11z" />
    <glyph glyph-name="Dcroat" unicode="&#x110;" horiz-adv-x="1447" 
d="M8 555v311h88v553h590q173 0 303 -36t226 -114.5t145 -210.5t49 -317v-49q0 -182 -51 -316.5t-147.5 -216t-227 -120.5t-297.5 -39h-590v555h-88zM565 326h119q122 0 179 77t57 273v74q0 101 -15.5 169t-48 106t-75 53.5t-103.5 15.5h-113v-228h205v-311h-205v-229z" />
    <glyph glyph-name="dcroat" unicode="&#x111;" horiz-adv-x="1247" 
d="M485 1208v181h269v124h422v-124h102v-181h-102v-1208h-367l-27 84h-10q-116 -104 -309 -104q-92 0 -168 32t-135 96t-92 170t-33 246v23q0 124 24.5 221t68 163.5t107 110t139.5 63t167 19.5q127 0 213 -39v123h-269zM631 285q70 0 123 34v496q-52 29 -115 29
q-84 0 -126 -59t-42 -212v-32q0 -77 11 -128t33 -78.5t49.5 -38.5t66.5 -11z" />
    <glyph glyph-name="Emacron" unicode="&#x112;" horiz-adv-x="1191" 
d="M88 0v1419h1030v-329h-559v-207h440v-324h-440v-229h586v-330h-1057zM287 1489v264h649v-264h-649z" />
    <glyph glyph-name="emacron" unicode="&#x113;" horiz-adv-x="1155" 
d="M635 -20q-604 0 -604 563v24q0 251 150.5 404t414.5 153q284 0 407 -148.5t123 -438.5v-86h-663q18 -103 84 -141t203 -38q159 0 325 60v-256q-172 -96 -440 -96zM295 1198v264h616v-264h-616zM600 852q-59 0 -95 -41t-46 -143h264q0 101 -29 142.5t-94 41.5z" />
    <glyph glyph-name="Ebreve" unicode="&#x114;" horiz-adv-x="1191" 
d="M88 0v1419h1030v-329h-559v-207h440v-324h-440v-229h586v-330h-1057zM612 1479q-157 0 -249 81t-97 214h264q10 -76 82 -76q74 0 84 76h265q-5 -133 -97.5 -214t-251.5 -81z" />
    <glyph glyph-name="ebreve" unicode="&#x115;" horiz-adv-x="1155" 
d="M635 -20q-604 0 -604 563v24q0 251 150.5 404t414.5 153q284 0 407 -148.5t123 -438.5v-86h-663q18 -103 84 -141t203 -38q159 0 325 60v-256q-172 -96 -440 -96zM596 1194q-157 0 -249 86t-97 225h264q10 -73 82 -73q74 0 84 73h264q-5 -139 -97.5 -225t-250.5 -86z
M600 852q-59 0 -95 -41t-46 -143h264q0 101 -29 142.5t-94 41.5z" />
    <glyph glyph-name="Edotaccent" unicode="&#x116;" horiz-adv-x="1191" 
d="M420 1487v293h407v-293h-407zM88 0v1419h1030v-329h-559v-207h440v-324h-440v-229h586v-330h-1057z" />
    <glyph glyph-name="edotaccent" unicode="&#x117;" horiz-adv-x="1155" 
d="M635 -20q-604 0 -604 563v24q0 251 150.5 404t414.5 153q284 0 407 -148.5t123 -438.5v-86h-663q18 -103 84 -141t203 -38q159 0 325 60v-256q-172 -96 -440 -96zM391 1196v305h428v-305h-428zM600 852q-59 0 -95 -41t-46 -143h264q0 101 -29 142.5t-94 41.5z" />
    <glyph glyph-name="Eogonek" unicode="&#x118;" horiz-adv-x="1191" 
d="M88 0v1419h1030v-329h-559v-207h440v-324h-440v-229h586v-330h-94q-43 -40 -65.5 -69.5t-22.5 -57.5q0 -53 61 -53q15 0 51 6v-203q-64 -31 -182 -31q-119 0 -186.5 50t-67.5 131q0 73 44 131t116 96h-711z" />
    <glyph glyph-name="eogonek" unicode="&#x119;" horiz-adv-x="1155" 
d="M764 -408q-119 0 -186.5 50t-67.5 131q0 123 149 207h-24q-604 0 -604 563v24q0 251 150.5 404t414.5 153q284 0 407 -148.5t123 -438.5v-86h-663q18 -103 84 -141t203 -38q159 0 325 60v-256q-18 -11 -62.5 -35t-70.5 -39q-106 -64 -106 -129q0 -53 59 -53q15 0 51 6
v-203q-72 -31 -182 -31zM600 852q-59 0 -95 -41t-46 -143h264q0 101 -29 142.5t-94 41.5z" />
    <glyph glyph-name="Ecaron" unicode="&#x11a;" horiz-adv-x="1191" 
d="M997 1769l-213 -284h-342l-213 284h297l88 -77l86 77h297zM88 0v1419h1030v-329h-559v-207h440v-324h-440v-229h586v-330h-1057z" />
    <glyph glyph-name="ecaron" unicode="&#x11b;" horiz-adv-x="1155" 
d="M635 -20q-604 0 -604 563v24q0 251 150.5 404t414.5 153q284 0 407 -148.5t123 -438.5v-86h-663q18 -103 84 -141t203 -38q159 0 325 60v-256q-172 -96 -440 -96zM985 1511l-215 -325h-342l-215 325h299l88 -102l86 102h299zM600 852q-59 0 -95 -41t-46 -143h264
q0 101 -29 142.5t-94 41.5z" />
    <glyph glyph-name="Gcircumflex" unicode="&#x11c;" horiz-adv-x="1384" 
d="M375 1485l213 284h342l213 -284h-297l-88 78l-86 -78h-297zM793 -23q-181 0 -316.5 37.5t-236 119.5t-152 221.5t-51.5 334.5v47q0 157 41 280t110.5 202t168.5 130.5t208 73t236 21.5q145 0 262.5 -22t187.5 -54v-340q-172 55 -368 55q-107 0 -177 -21t-109 -66.5
t-54 -104.5t-15 -148v-63q0 -99 10 -164t36.5 -114.5t75.5 -72t126 -22.5q54 0 113 19v172h-168v297h606v-721q-89 -38 -238.5 -67.5t-295.5 -29.5z" />
    <glyph glyph-name="gcircumflex" unicode="&#x11d;" horiz-adv-x="1146" 
d="M180 1186l215 325h342l215 -325h-299l-88 100l-86 -100h-299zM530 -410q-280 0 -414 68t-134 188q0 151 200 215v11q-121 54 -121 174q0 131 140 231q-150 89 -150 273v12q0 177 130 269.5t364 92.5q121 0 213 -18h370v-232h-127q27 -43 27 -106v-12q0 -171 -127 -259.5
t-358 -88.5q-83 0 -150 12q-14 -24 -14 -43q0 -29 17.5 -40t62.5 -11h315q375 0 375 -320q0 -196 -156.5 -306t-462.5 -110zM530 -166q209 0 209 96q0 41 -24.5 53.5t-100.5 12.5h-206q-58 -21 -58 -76q0 -41 39 -63.5t141 -22.5zM545 614q51 0 76.5 31.5t25.5 110.5v14
q0 87 -24 115t-80 28q-52 0 -76.5 -30.5t-24.5 -110.5v-14q0 -81 24.5 -112.5t78.5 -31.5z" />
    <glyph glyph-name="Gbreve" unicode="&#x11e;" horiz-adv-x="1384" 
d="M758 1479q-157 0 -249 81t-97 214h264q10 -76 82 -76q74 0 84 76h264q-5 -133 -97.5 -214t-250.5 -81zM793 -23q-181 0 -316.5 37.5t-236 119.5t-152 221.5t-51.5 334.5v47q0 157 41 280t110.5 202t168.5 130.5t208 73t236 21.5q145 0 262.5 -22t187.5 -54v-340
q-172 55 -368 55q-107 0 -177 -21t-109 -66.5t-54 -104.5t-15 -148v-63q0 -99 10 -164t36.5 -114.5t75.5 -72t126 -22.5q54 0 113 19v172h-168v297h606v-721q-89 -38 -238.5 -67.5t-295.5 -29.5z" />
    <glyph glyph-name="gbreve" unicode="&#x11f;" horiz-adv-x="1146" 
d="M530 -410q-280 0 -414 68t-134 188q0 151 200 215v11q-121 54 -121 174q0 131 140 231q-150 89 -150 273v12q0 177 130 269.5t364 92.5q121 0 213 -18h370v-232h-127q27 -43 27 -106v-12q0 -171 -127 -259.5t-358 -88.5q-83 0 -150 12q-14 -24 -14 -43q0 -29 17.5 -40
t62.5 -11h315q375 0 375 -320q0 -196 -156.5 -306t-462.5 -110zM530 -166q209 0 209 96q0 41 -24.5 53.5t-100.5 12.5h-206q-58 -21 -58 -76q0 -41 39 -63.5t141 -22.5zM545 614q51 0 76.5 31.5t25.5 110.5v14q0 87 -24 115t-80 28q-52 0 -76.5 -30.5t-24.5 -110.5v-14
q0 -81 24.5 -112.5t78.5 -31.5zM575 1194q-157 0 -249 86t-97 225h265q10 -73 81 -73q74 0 84 73h265q-5 -139 -98 -225t-251 -86z" />
    <glyph glyph-name="Gdotaccent" unicode="&#x120;" horiz-adv-x="1384" 
d="M555 1487v293h408v-293h-408zM793 -23q-181 0 -316.5 37.5t-236 119.5t-152 221.5t-51.5 334.5v47q0 157 41 280t110.5 202t168.5 130.5t208 73t236 21.5q145 0 262.5 -22t187.5 -54v-340q-172 55 -368 55q-107 0 -177 -21t-109 -66.5t-54 -104.5t-15 -148v-63
q0 -99 10 -164t36.5 -114.5t75.5 -72t126 -22.5q54 0 113 19v172h-168v297h606v-721q-89 -38 -238.5 -67.5t-295.5 -29.5z" />
    <glyph glyph-name="gdotaccent" unicode="&#x121;" horiz-adv-x="1146" 
d="M530 -410q-280 0 -414 68t-134 188q0 151 200 215v11q-121 54 -121 174q0 131 140 231q-150 89 -150 273v12q0 177 130 269.5t364 92.5q121 0 213 -18h370v-232h-127q27 -43 27 -106v-12q0 -171 -127 -259.5t-358 -88.5q-83 0 -150 12q-14 -24 -14 -43q0 -29 17.5 -40
t62.5 -11h315q375 0 375 -320q0 -196 -156.5 -306t-462.5 -110zM530 -166q209 0 209 96q0 41 -24.5 53.5t-100.5 12.5h-206q-58 -21 -58 -76q0 -41 39 -63.5t141 -22.5zM545 614q51 0 76.5 31.5t25.5 110.5v14q0 87 -24 115t-80 28q-52 0 -76.5 -30.5t-24.5 -110.5v-14
q0 -81 24.5 -112.5t78.5 -31.5zM354 1196v305h428v-305h-428z" />
    <glyph glyph-name="Gcommaaccent" unicode="&#x122;" horiz-adv-x="1384" 
d="M565 -373l21 305h364l-98 -305h-287zM793 -23q-181 0 -316.5 37.5t-236 119.5t-152 221.5t-51.5 334.5v47q0 157 41 280t110.5 202t168.5 130.5t208 73t236 21.5q145 0 262.5 -22t187.5 -54v-340q-172 55 -368 55q-107 0 -177 -21t-109 -66.5t-54 -104.5t-15 -148v-63
q0 -99 10 -164t36.5 -114.5t75.5 -72t126 -22.5q54 0 113 19v172h-168v297h606v-721q-89 -38 -238.5 -67.5t-295.5 -29.5z" />
    <glyph glyph-name="gcommaaccent" unicode="&#x123;" horiz-adv-x="1146" 
d="M756 1497l-23 -305h-362l98 305h287zM530 -410q-280 0 -414 68t-134 188q0 151 200 215v11q-121 54 -121 174q0 131 140 231q-150 89 -150 273v12q0 177 130 269.5t364 92.5q121 0 213 -18h370v-232h-127q27 -43 27 -106v-12q0 -171 -127 -259.5t-358 -88.5
q-83 0 -150 12q-14 -24 -14 -43q0 -29 17.5 -40t62.5 -11h315q375 0 375 -320q0 -196 -156.5 -306t-462.5 -110zM530 -166q209 0 209 96q0 41 -24.5 53.5t-100.5 12.5h-206q-58 -21 -58 -76q0 -41 39 -63.5t141 -22.5zM545 614q51 0 76.5 31.5t25.5 110.5v14q0 87 -24 115
t-80 28q-52 0 -76.5 -30.5t-24.5 -110.5v-14q0 -81 24.5 -112.5t78.5 -31.5z" />
    <glyph glyph-name="Hcircumflex" unicode="&#x124;" horiz-adv-x="1488" 
d="M88 0v1419h477v-526h359v526h477v-1419h-477v559h-359v-559h-477zM358 1485l213 284h342l213 -284h-297l-88 78l-86 -78h-297z" />
    <glyph glyph-name="hcircumflex" unicode="&#x125;" horiz-adv-x="1226" 
d="M70 0v1513h424v-497h10q130 108 330 108q158 0 242.5 -72t84.5 -231v-821h-424v702q0 53 -27 75t-85 22t-131 -25v-774h-424zM244 1579l213 285h342l213 -285h-297l-88 78l-86 -78h-297z" />
    <glyph glyph-name="Hbar" unicode="&#x126;" horiz-adv-x="1488" 
d="M-2 1028v201h90v190h477v-190h359v190h477v-190h90v-201h-90v-1028h-477v559h-359v-559h-477v1028h-90zM565 881h359v147h-359v-147z" />
    <glyph glyph-name="hbar" unicode="&#x127;" horiz-adv-x="1226" 
d="M70 0v1208h-101v181h101v124h424v-124h268v-181h-268v-192h10q130 108 330 108q158 0 242.5 -72t84.5 -231v-821h-424v702q0 53 -27 75t-85 22t-131 -25v-774h-424z" />
    <glyph glyph-name="Itilde" unicode="&#x128;" horiz-adv-x="667" 
d="M96 0v1419h475v-1419h-475zM-70 1487q9 83 35 143.5t63.5 94.5t79.5 49.5t91 15.5q60 0 136 -27.5t95 -27.5q45 0 62 49h243q-16 -158 -89.5 -229.5t-176.5 -71.5q-60 0 -137 27.5t-94 27.5q-49 0 -62 -51h-246z" />
    <glyph glyph-name="itilde" unicode="&#x129;" horiz-adv-x="575" 
d="M76 0v1104h424v-1104h-424zM-88 1200q14 161 85.5 239.5t166.5 78.5q56 0 124.5 -30t84.5 -30q24 0 36 13.5t19 41.5h236q-14 -161 -85.5 -239t-166.5 -78q-57 0 -127 28.5t-86 28.5q-23 0 -35.5 -13t-18.5 -40h-233z" />
    <glyph glyph-name="Imacron" unicode="&#x12a;" horiz-adv-x="667" 
d="M96 0v1419h475v-1419h-475zM18 1489v264h631v-264h-631z" />
    <glyph glyph-name="imacron" unicode="&#x12b;" horiz-adv-x="575" 
d="M8 1198v264h561v-264h-561zM76 0v1104h424v-1104h-424z" />
    <glyph glyph-name="Ibreve" unicode="&#x12c;" horiz-adv-x="667" 
d="M96 0v1419h475v-1419h-475zM332 1479q-157 0 -249 81t-97 214h264q10 -76 82 -76q74 0 84 76h264q-5 -133 -97.5 -214t-250.5 -81z" />
    <glyph glyph-name="ibreve" unicode="&#x12d;" horiz-adv-x="575" 
d="M76 0v1104h424v-1104h-424zM287 1194q-156 0 -242.5 85t-91.5 226h254q10 -73 80 -73q36 0 56.5 19.5t23.5 53.5h256q-5 -141 -92 -226t-244 -85z" />
    <glyph glyph-name="Iogonek" unicode="&#x12e;" horiz-adv-x="667" 
d="M127 -227q0 136 162 227h-193v1419h477v-1413q-60 -29 -90 -64.5t-30 -68.5q0 -53 59 -53q9 0 51 6v-203q-72 -31 -182 -31q-120 0 -187 49.5t-67 131.5z" />
    <glyph glyph-name="iogonek" unicode="&#x12f;" horiz-adv-x="575" 
d="M68 -227q0 73 44 130.5t115 96.5h-151v1104h424v-1098q-52 -28 -80.5 -64.5t-28.5 -68.5q0 -53 60 -53q15 0 51 6v-203q-64 -31 -183 -31t-185 50t-66 131zM74 1196v305h428v-305h-428z" />
    <glyph glyph-name="Idotaccent" unicode="&#x130;" horiz-adv-x="667" 
d="M96 0v1419h475v-1419h-475zM131 1487v293h408v-293h-408z" />
    <glyph glyph-name="dotlessi" unicode="&#x131;" horiz-adv-x="575" 
d="M76 0v1104h424v-1104h-424z" />
    <glyph glyph-name="IJ" unicode="&#x132;" horiz-adv-x="1548" 
d="M96 0v1419h475v-1419h-475zM670 45v317q74 -16 135 -16q190 0 190 156v917h478v-985q0 -206 -125 -328t-361 -122q-201 0 -317 61z" />
    <glyph glyph-name="ij" unicode="&#x133;" horiz-adv-x="1153" 
d="M76 0v1104h424v-1104h-424zM74 1196v305h428v-305h-428zM653 -403q-140 0 -217 34v267q63 -7 74 -7q141 0 141 123v1090h424v-1135q0 -178 -99.5 -275t-322.5 -97zM649 1196v305h428v-305h-428z" />
    <glyph glyph-name="Jcircumflex" unicode="&#x134;" horiz-adv-x="933" 
d="M240 1485l213 284h342l213 -284h-297l-88 78l-86 -78h-297zM362 -16q-205 0 -331 67v314q88 -19 149 -19q201 0 201 156v917h477v-985q0 -205 -128 -327.5t-368 -122.5z" />
    <glyph glyph-name="jcircumflex" unicode="&#x135;" horiz-adv-x="575" 
d="M-76 1186l193 325h342l192 -325h-293l-71 100l-70 -100h-293zM78 -403q-140 0 -217 34v267q63 -7 73 -7q142 0 142 123v1090h424v-1135q0 -178 -99.5 -275t-322.5 -97z" />
    <glyph glyph-name="Kcommaaccent" unicode="&#x136;" horiz-adv-x="1445" 
d="M88 0v1419h477v-600l385 600h477l-440 -669l471 -750h-526l-367 586v-586h-477zM526 -373l21 305h364l-98 -305h-287z" />
    <glyph glyph-name="kcommaaccent" unicode="&#x137;" horiz-adv-x="1204" 
d="M754 0l-260 479v-479h-424v1513h424v-843l274 434h418l-324 -500l338 -604h-446zM416 -373l20 305h365l-99 -305h-286z" />
    <glyph glyph-name="Lacute" unicode="&#x139;" horiz-adv-x="1107" 
d="M139 1485l109 301h424l-197 -301h-336zM88 0v1419h477v-1089h506v-330h-983z" />
    <glyph glyph-name="lacute" unicode="&#x13a;" horiz-adv-x="575" 
d="M104 1579l109 301h424l-197 -301h-336zM76 0v1513h424v-1513h-424z" />
    <glyph glyph-name="Lcommaaccent" unicode="&#x13b;" horiz-adv-x="1107" 
d="M391 -373l21 305h364l-98 -305h-287zM88 0v1419h477v-1089h506v-330h-983z" />
    <glyph glyph-name="lcommaaccent" unicode="&#x13c;" horiz-adv-x="575" 
d="M94 -373l21 305h364l-98 -305h-287zM76 0v1513h424v-1513h-424z" />
    <glyph glyph-name="Lcaron" unicode="&#x13d;" horiz-adv-x="1107" 
d="M88 0v1419h477v-1089h506v-330h-983zM946 1030h-270l16 389h324z" />
    <glyph glyph-name="lcaron" unicode="&#x13e;" horiz-adv-x="575" 
d="M791 1176h-222l13 337h272zM76 0v1513h424v-1513h-424z" />
    <glyph glyph-name="Ldot" unicode="&#x13f;" horiz-adv-x="1107" 
d="M88 0v1419h477v-1089h506v-330h-983zM713 604v309h348v-309h-348z" />
    <glyph glyph-name="ldot" unicode="&#x140;" horiz-adv-x="868" 
d="M76 0v1513h424v-1513h-424zM567 592v282h312v-282h-312z" />
    <glyph glyph-name="Lslash" unicode="&#x141;" horiz-adv-x="1134" 
d="M8 395v314l105 36v674h477v-504l328 119v-313l-328 -121v-270h508v-330h-985v432z" />
    <glyph glyph-name="lslash" unicode="&#x142;" horiz-adv-x="638" 
d="M6 465v315l100 49v684h424v-475l113 58v-314l-113 -59v-723h-424v514z" />
    <glyph glyph-name="Nacute" unicode="&#x143;" horiz-adv-x="1478" 
d="M596 1485l109 301h423l-196 -301h-336zM88 0v1419h508l385 -682h8v682h402v-1419h-447l-446 782h-9v-782h-401z" />
    <glyph glyph-name="nacute" unicode="&#x144;" horiz-adv-x="1226" 
d="M442 1186l123 325h422l-209 -325h-336zM70 0v1104h411v-98h11q135 118 342 118q158 0 242.5 -72t84.5 -231v-821h-424v702q0 53 -27 75t-85 22t-131 -25v-774h-424z" />
    <glyph glyph-name="Ncommaaccent" unicode="&#x145;" horiz-adv-x="1478" 
d="M549 -369l20 306h365l-98 -306h-287zM88 0v1419h508l385 -682h8v682h402v-1419h-447l-446 782h-9v-782h-401z" />
    <glyph glyph-name="ncommaaccent" unicode="&#x146;" horiz-adv-x="1226" 
d="M426 -373l20 305h365l-98 -305h-287zM70 0v1104h411v-98h11q135 118 342 118q158 0 242.5 -72t84.5 -231v-821h-424v702q0 53 -27 75t-85 22t-131 -25v-774h-424z" />
    <glyph glyph-name="Ncaron" unicode="&#x147;" horiz-adv-x="1478" 
d="M1163 1769l-213 -284h-342l-213 284h297l88 -77l86 77h297zM88 0v1419h508l385 -682h8v682h402v-1419h-447l-446 782h-9v-782h-401z" />
    <glyph glyph-name="ncaron" unicode="&#x148;" horiz-adv-x="1226" 
d="M1014 1511l-215 -325h-342l-215 325h299l88 -102l86 102h299zM70 0v1104h411v-98h11q135 118 342 118q158 0 242.5 -72t84.5 -231v-821h-424v702q0 53 -27 75t-85 22t-131 -25v-774h-424z" />
    <glyph glyph-name="napostrophe" unicode="&#x149;" horiz-adv-x="1449" 
d="M-123 946l23 473h383l-86 -473h-320zM293 0v1104h412v-98h10q135 118 342 118q158 0 242.5 -72t84.5 -231v-821h-423v702q0 53 -27 75t-86 22q-58 0 -131 -25v-774h-424z" />
    <glyph glyph-name="Eng" unicode="&#x14a;" horiz-adv-x="1478" 
d="M918 -362q-146 0 -254 47v260q82 -17 141 -17q129 0 164 58l-471 796h-9v-782h-401v1419h508l385 -680h8v680h402v-1368q0 -100 -24.5 -174.5t-79.5 -129t-147 -82t-222 -27.5z" />
    <glyph glyph-name="eng" unicode="&#x14b;" horiz-adv-x="1226" 
d="M530 -369l2 258q32 -4 70 -4q135 0 135 121v696q0 53 -27 75t-85 22t-131 -25v-774h-424v1104h411v-98h11q135 118 342 118q158 0 242.5 -72t84.5 -231v-852q0 -372 -413 -372q-145 0 -218 34z" />
    <glyph glyph-name="Omacron" unicode="&#x14c;" horiz-adv-x="1495" 
d="M424 1489v264h649v-264h-649zM741 -25q-116 0 -218 23.5t-192.5 77.5t-154.5 134.5t-101.5 200.5t-37.5 269v49q0 153 41 276.5t109 204t162 134.5t194.5 77t210.5 23q117 0 219 -23.5t192 -77.5t154.5 -134t101.5 -199.5t37 -268.5v-49q0 -154 -40.5 -277.5t-109 -204.5
t-162 -135t-194 -77t-211.5 -23zM750 315q105 0 156.5 82.5t51.5 270.5v73q0 139 -24 219.5t-68 112t-118 31.5q-105 0 -158 -81.5t-53 -270.5v-72q0 -109 14.5 -182.5t44 -112.5t66 -54.5t88.5 -15.5z" />
    <glyph glyph-name="omacron" unicode="&#x14d;" horiz-adv-x="1230" 
d="M307 1198v264h617v-264h-617zM614 -20q-285 0 -434 144t-149 411v22q0 143 45 253t125 177.5t184 102t229 34.5q289 0 437.5 -140t148.5 -413v-22q0 -143 -45 -253.5t-125.5 -178.5t-185.5 -102.5t-230 -34.5zM616 262q50 0 80.5 20.5t49 81t18.5 166.5v33
q0 90 -10 147.5t-32 85.5t-46.5 37t-63.5 9q-49 0 -79 -20.5t-48 -80.5t-18 -166v-34q0 -87 10 -143.5t31 -85.5t46 -39.5t62 -10.5z" />
    <glyph glyph-name="Obreve" unicode="&#x14e;" horiz-adv-x="1495" 
d="M748 1479q-157 0 -249.5 81t-97.5 214h265q10 -76 82 -76q73 0 83 76h265q-5 -133 -97.5 -214t-250.5 -81zM741 -25q-116 0 -218 23.5t-192.5 77.5t-154.5 134.5t-101.5 200.5t-37.5 269v49q0 153 41 276.5t109 204t162 134.5t194.5 77t210.5 23q117 0 219 -23.5
t192 -77.5t154.5 -134t101.5 -199.5t37 -268.5v-49q0 -154 -40.5 -277.5t-109 -204.5t-162 -135t-194 -77t-211.5 -23zM750 315q105 0 156.5 82.5t51.5 270.5v73q0 139 -24 219.5t-68 112t-118 31.5q-105 0 -158 -81.5t-53 -270.5v-72q0 -109 14.5 -182.5t44 -112.5
t66 -54.5t88.5 -15.5z" />
    <glyph glyph-name="obreve" unicode="&#x14f;" horiz-adv-x="1230" 
d="M614 -20q-285 0 -434 144t-149 411v22q0 143 45 253t125 177.5t184 102t229 34.5q289 0 437.5 -140t148.5 -413v-22q0 -143 -45 -253.5t-125.5 -178.5t-185.5 -102.5t-230 -34.5zM616 262q50 0 80.5 20.5t49 81t18.5 166.5v33q0 90 -10 147.5t-32 85.5t-46.5 37t-63.5 9
q-49 0 -79 -20.5t-48 -80.5t-18 -166v-34q0 -87 10 -143.5t31 -85.5t46 -39.5t62 -10.5zM614 1194q-157 0 -249 86t-97 225h264q10 -73 82 -73q74 0 84 73h265q-5 -139 -98 -225t-251 -86z" />
    <glyph glyph-name="Ohungarumlaut" unicode="&#x150;" horiz-adv-x="1495" 
d="M809 1485l80 305h371l-134 -305h-317zM365 1485l79 305h371l-133 -305h-317zM741 -25q-116 0 -218 23.5t-192.5 77.5t-154.5 134.5t-101.5 200.5t-37.5 269v49q0 153 41 276.5t109 204t162 134.5t194.5 77t210.5 23q117 0 219 -23.5t192 -77.5t154.5 -134t101.5 -199.5
t37 -268.5v-49q0 -154 -40.5 -277.5t-109 -204.5t-162 -135t-194 -77t-211.5 -23zM750 315q105 0 156.5 82.5t51.5 270.5v73q0 139 -24 219.5t-68 112t-118 31.5q-105 0 -158 -81.5t-53 -270.5v-72q0 -109 14.5 -182.5t44 -112.5t66 -54.5t88.5 -15.5z" />
    <glyph glyph-name="ohungarumlaut" unicode="&#x151;" horiz-adv-x="1230" 
d="M676 1186l88 325h371l-142 -325h-317zM231 1186l88 325h371l-141 -325h-318zM614 -20q-285 0 -434 144t-149 411v22q0 143 45 253t125 177.5t184 102t229 34.5q289 0 437.5 -140t148.5 -413v-22q0 -143 -45 -253.5t-125.5 -178.5t-185.5 -102.5t-230 -34.5zM616 262
q50 0 80.5 20.5t49 81t18.5 166.5v33q0 90 -10 147.5t-32 85.5t-46.5 37t-63.5 9q-49 0 -79 -20.5t-48 -80.5t-18 -166v-34q0 -87 10 -143.5t31 -85.5t46 -39.5t62 -10.5z" />
    <glyph glyph-name="OE" unicode="&#x152;" horiz-adv-x="1955" 
d="M760 0q-173 0 -303 36t-226 114.5t-145 210.5t-49 317v49q0 182 51 316.5t147.5 216t227 120.5t297.5 39h1122v-329h-543v-207h424v-324h-424v-229h570v-330h-1149zM774 326h94v768h-98q-120 0 -176.5 -77.5t-56.5 -273.5v-73q0 -101 15.5 -169t47.5 -106t73.5 -53.5
t100.5 -15.5z" />
    <glyph glyph-name="oe" unicode="&#x153;" horiz-adv-x="1888" 
d="M604 -20q-280 0 -426.5 144t-146.5 411v22q0 142 44.5 252t123.5 178t182 102.5t225 34.5q268 0 389 -133q120 133 351 133q141 0 241.5 -39t159.5 -116.5t86 -183t27 -248.5v-86h-662q18 -103 83.5 -141t201.5 -38q159 0 325 60v-256q-168 -96 -409 -96q-292 0 -416 145
q-130 -145 -379 -145zM616 264q51 0 81 20t48.5 80t18.5 166v33q0 90 -10 147.5t-32 85.5t-46.5 37t-63.5 9q-50 0 -80 -20.5t-47.5 -80t-17.5 -166.5v-34q0 -87 10 -143.5t31 -85t46 -38.5t62 -10zM1333 852q-59 0 -94 -41t-45 -143h262q0 101 -28.5 142.5t-94.5 41.5z" />
    <glyph glyph-name="Racute" unicode="&#x154;" horiz-adv-x="1384" 
d="M483 1485l109 301h424l-197 -301h-336zM88 0v1419h664q284 0 422.5 -109.5t138.5 -344.5q0 -139 -55.5 -222t-167.5 -135v-6l299 -602h-488l-231 485h-105v-485h-477zM557 760h123q86 0 126 44.5t40 135.5q0 86 -40.5 127t-129.5 41h-119v-348z" />
    <glyph glyph-name="racute" unicode="&#x155;" horiz-adv-x="845" 
d="M309 1186l123 325h422l-209 -325h-336zM70 0v1104h411v-137h11q42 69 110.5 108t153.5 39q44 0 63 -8v-375q-40 12 -98 12q-143 0 -227 -34v-709h-424z" />
    <glyph glyph-name="Rcommaaccent" unicode="&#x156;" horiz-adv-x="1384" 
d="M524 -373l21 305h364l-98 -305h-287zM88 0v1419h664q284 0 422.5 -109.5t138.5 -344.5q0 -139 -55.5 -222t-167.5 -135v-6l299 -602h-488l-231 485h-105v-485h-477zM557 760h123q86 0 126 44.5t40 135.5q0 86 -40.5 127t-129.5 41h-119v-348z" />
    <glyph glyph-name="rcommaaccent" unicode="&#x157;" horiz-adv-x="845" 
d="M78 -373l20 305h365l-98 -305h-287zM70 0v1104h411v-137h11q42 69 110.5 108t153.5 39q44 0 63 -8v-375q-40 12 -98 12q-143 0 -227 -34v-709h-424z" />
    <glyph glyph-name="Rcaron" unicode="&#x158;" horiz-adv-x="1384" 
d="M1051 1769l-213 -284h-342l-213 284h297l88 -77l86 77h297zM88 0v1419h664q284 0 422.5 -109.5t138.5 -344.5q0 -139 -55.5 -222t-167.5 -135v-6l299 -602h-488l-231 485h-105v-485h-477zM557 760h123q86 0 126 44.5t40 135.5q0 86 -40.5 127t-129.5 41h-119v-348z" />
    <glyph glyph-name="rcaron" unicode="&#x159;" horiz-adv-x="845" 
d="M881 1511l-215 -325h-342l-215 325h299l88 -102l86 102h299zM70 0v1104h411v-137h11q42 69 110.5 108t153.5 39q44 0 63 -8v-375q-40 12 -98 12q-143 0 -227 -34v-709h-424z" />
    <glyph glyph-name="Sacute" unicode="&#x15a;" horiz-adv-x="1157" 
d="M532 -25q-326 0 -489 80v338q114 -37 212.5 -56.5t215.5 -19.5q105 0 148 23t43 74q0 45 -29.5 64t-124.5 36l-92 18q-94 17 -160.5 46t-118.5 80t-78 131.5t-26 191.5q0 102 33.5 185.5t100 146t174.5 97t249 34.5q293 0 444 -72v-332q-192 66 -393 66
q-85 0 -124.5 -21.5t-39.5 -68.5q0 -41 32 -60.5t120 -37.5l90 -17q105 -19 176.5 -48t125.5 -79t79.5 -126.5t25.5 -184.5q0 -240 -153 -364t-441 -124zM401 1485l109 301h424l-197 -301h-336z" />
    <glyph glyph-name="sacute" unicode="&#x15b;" horiz-adv-x="974" 
d="M311 1186l123 325h422l-209 -325h-336zM432 -20q-111 0 -218 19.5t-175 49.5v277q178 -60 330 -60q91 0 128.5 16t37.5 52q0 31 -21 42t-82 21l-102 15q-150 24 -224.5 108t-74.5 240q0 176 117.5 270t355.5 94q223 0 368 -55v-274q-58 15 -87 22t-93.5 16t-126.5 9
q-74 0 -105.5 -13.5t-31.5 -48.5q0 -31 24 -43t89 -22l100 -15q164 -25 233.5 -108t69.5 -230q0 -192 -123.5 -287t-388.5 -95z" />
    <glyph glyph-name="Scircumflex" unicode="&#x15c;" horiz-adv-x="1157" 
d="M203 1485l213 284h342l213 -284h-297l-88 78l-86 -78h-297zM532 -25q-326 0 -489 80v338q114 -37 212.5 -56.5t215.5 -19.5q105 0 148 23t43 74q0 45 -29.5 64t-124.5 36l-92 18q-94 17 -160.5 46t-118.5 80t-78 131.5t-26 191.5q0 102 33.5 185.5t100 146t174.5 97
t249 34.5q293 0 444 -72v-332q-192 66 -393 66q-85 0 -124.5 -21.5t-39.5 -68.5q0 -41 32 -60.5t120 -37.5l90 -17q105 -19 176.5 -48t125.5 -79t79.5 -126.5t25.5 -184.5q0 -240 -153 -364t-441 -124z" />
    <glyph glyph-name="scircumflex" unicode="&#x15d;" horiz-adv-x="974" 
d="M111 1186l215 325h342l215 -325h-299l-88 100l-86 -100h-299zM432 -20q-111 0 -218 19.5t-175 49.5v277q178 -60 330 -60q91 0 128.5 16t37.5 52q0 31 -21 42t-82 21l-102 15q-150 24 -224.5 108t-74.5 240q0 176 117.5 270t355.5 94q223 0 368 -55v-274q-58 15 -87 22
t-93.5 16t-126.5 9q-74 0 -105.5 -13.5t-31.5 -48.5q0 -31 24 -43t89 -22l100 -15q164 -25 233.5 -108t69.5 -230q0 -192 -123.5 -287t-388.5 -95z" />
    <glyph glyph-name="Scedilla" unicode="&#x15e;" horiz-adv-x="1157" 
d="M346 -467v152q103 6 143.5 20t40.5 45q0 28 -29 39t-106 14v177q-237 16 -352 75v338q114 -37 212.5 -56.5t215.5 -19.5q105 0 148 23t43 74q0 45 -29.5 64t-124.5 36l-92 18q-94 17 -160.5 46t-118.5 80t-78 131.5t-26 191.5q0 102 33.5 185.5t100 146t174.5 97
t249 34.5q293 0 444 -72v-332q-192 66 -393 66q-85 0 -124.5 -21.5t-39.5 -68.5q0 -41 32 -60.5t120 -37.5l90 -17q105 -19 176.5 -48t125.5 -79t79.5 -126.5t25.5 -184.5q0 -230 -141 -353.5t-407 -132.5v-55q231 -8 231 -172q0 -103 -111.5 -156.5t-351.5 -60.5z" />
    <glyph glyph-name="scedilla" unicode="&#x15f;" horiz-adv-x="972" 
d="M272 -467v152q103 6 144 20t41 45q0 28 -29 39t-106 14v183q-183 16 -283 63v277q178 -60 330 -60q91 0 128.5 16t37.5 52q0 31 -21 42t-82 21l-102 15q-150 24 -224.5 108t-74.5 240q0 176 117.5 270t355.5 94q223 0 368 -55v-274q-58 15 -87 22t-93.5 16t-126.5 9
q-74 0 -105.5 -13.5t-31.5 -48.5q0 -31 24 -43t89 -22l100 -15q164 -25 233.5 -108t69.5 -230q0 -179 -106 -273t-334 -107v-60q231 -8 231 -172q0 -103 -111.5 -156.5t-351.5 -60.5z" />
    <glyph glyph-name="Scaron" unicode="&#x160;" horiz-adv-x="1157" 
d="M958 1769l-213 -284h-342l-213 284h297l88 -77l87 77h296zM532 -25q-326 0 -489 80v338q114 -37 212.5 -56.5t215.5 -19.5q105 0 148 23t43 74q0 45 -29.5 64t-124.5 36l-92 18q-94 17 -160.5 46t-118.5 80t-78 131.5t-26 191.5q0 102 33.5 185.5t100 146t174.5 97
t249 34.5q293 0 444 -72v-332q-192 66 -393 66q-85 0 -124.5 -21.5t-39.5 -68.5q0 -41 32 -60.5t120 -37.5l90 -17q105 -19 176.5 -48t125.5 -79t79.5 -126.5t25.5 -184.5q0 -240 -153 -364t-441 -124z" />
    <glyph glyph-name="scaron" unicode="&#x161;" horiz-adv-x="972" 
d="M883 1511l-215 -325h-342l-215 325h299l88 -102l86 102h299zM432 -20q-111 0 -218 19.5t-175 49.5v277q178 -60 330 -60q91 0 128.5 16t37.5 52q0 31 -21 42t-82 21l-102 15q-150 24 -224.5 108t-74.5 240q0 176 117.5 270t355.5 94q223 0 368 -55v-274q-58 15 -87 22
t-93.5 16t-126.5 9q-74 0 -105.5 -13.5t-31.5 -48.5q0 -31 24 -43t89 -22l100 -15q164 -25 233.5 -108t69.5 -230q0 -192 -123.5 -287t-388.5 -95z" />
    <glyph glyph-name="Tcommaaccent" unicode="&#x162;" horiz-adv-x="1232" 
d="M420 -373l20 305h365l-98 -305h-287zM377 0v1090h-354v329h1187v-329h-356v-1090h-477z" />
    <glyph glyph-name="tcommaaccent" unicode="&#x163;" horiz-adv-x="817" 
d="M258 -373l21 305h364l-98 -305h-287zM518 -18q-191 0 -282 73t-91 260v502h-129v287h129v260h426v-260h207v-287h-207v-442q0 -49 26 -67.5t85 -18.5q46 0 96 12v-272q-36 -19 -105.5 -33t-154.5 -14z" />
    <glyph glyph-name="Tcaron" unicode="&#x164;" horiz-adv-x="1232" 
d="M999 1769l-213 -284h-342l-213 284h297l88 -77l86 77h297zM377 0v1090h-354v329h1187v-329h-356v-1090h-477z" />
    <glyph glyph-name="tcaron" unicode="&#x165;" horiz-adv-x="817" 
d="M864 1176h-221l12 337h273zM518 -18q-191 0 -282 73t-91 260v502h-129v287h129v260h426v-260h207v-287h-207v-442q0 -49 26 -67.5t85 -18.5q46 0 96 12v-272q-36 -19 -105.5 -33t-154.5 -14z" />
    <glyph glyph-name="Tbar" unicode="&#x166;" horiz-adv-x="1232" 
d="M133 606v236h244v248h-354v329h1187v-329h-356v-248h246v-236h-246v-606h-477v606h-244z" />
    <glyph glyph-name="tbar" unicode="&#x167;" horiz-adv-x="817" 
d="M16 514v199h129v104h-129v287h129v260h426v-260h207v-287h-207v-104h207v-199h-207v-139q0 -49 26 -67.5t85 -18.5q46 0 96 12v-272q-36 -19 -105.5 -33t-154.5 -14q-191 0 -282 73t-91 260v199h-129z" />
    <glyph glyph-name="Utilde" unicode="&#x168;" horiz-adv-x="1423" 
d="M729 -25q-649 0 -649 539v905h475v-891q0 -105 45 -157t141 -52q95 0 139 52t44 159v889h422v-905q0 -539 -617 -539zM336 1487q9 83 34.5 143.5t63 94.5t79.5 49.5t91 15.5q60 0 136.5 -27.5t95.5 -27.5q44 0 61 49h244q-16 -158 -90 -229.5t-177 -71.5q-60 0 -137 27.5
t-94 27.5q-48 0 -61 -51h-246z" />
    <glyph glyph-name="utilde" unicode="&#x169;" horiz-adv-x="1216" 
d="M403 -20q-337 0 -337 319v805h423v-711q0 -54 26 -76t83 -22q61 0 125 27v782h424v-1104h-375l-27 98h-10q-76 -61 -153.5 -89.5t-178.5 -28.5zM209 1200q18 161 92.5 239.5t175.5 78.5q60 0 136.5 -31t95.5 -31q45 0 61 57h244q-16 -161 -90.5 -239t-175.5 -78
q-60 0 -137.5 30.5t-94.5 30.5q-48 0 -61 -57h-246z" />
    <glyph glyph-name="Umacron" unicode="&#x16a;" horiz-adv-x="1423" 
d="M729 -25q-649 0 -649 539v905h475v-891q0 -105 45 -157t141 -52q95 0 139 52t44 159v889h422v-905q0 -539 -617 -539zM416 1489v264h649v-264h-649z" />
    <glyph glyph-name="umacron" unicode="&#x16b;" horiz-adv-x="1216" 
d="M403 -20q-337 0 -337 319v805h423v-711q0 -54 26 -76t83 -22q61 0 125 27v782h424v-1104h-375l-27 98h-10q-76 -61 -153.5 -89.5t-178.5 -28.5zM305 1198v264h617v-264h-617z" />
    <glyph glyph-name="Ubreve" unicode="&#x16c;" horiz-adv-x="1423" 
d="M729 -25q-649 0 -649 539v905h475v-891q0 -105 45 -157t141 -52q95 0 139 52t44 159v889h422v-905q0 -539 -617 -539zM739 1479q-157 0 -249 81t-97 214h264q10 -76 82 -76q74 0 84 76h264q-5 -133 -97.5 -214t-250.5 -81z" />
    <glyph glyph-name="ubreve" unicode="&#x16d;" horiz-adv-x="1216" 
d="M403 -20q-337 0 -337 319v805h423v-711q0 -54 26 -76t83 -22q61 0 125 27v782h424v-1104h-375l-27 98h-10q-76 -61 -153.5 -89.5t-178.5 -28.5zM612 1194q-157 0 -249 86t-97 225h264q10 -73 82 -73q74 0 84 73h265q-5 -139 -98 -225t-251 -86z" />
    <glyph glyph-name="Uring" unicode="&#x16e;" horiz-adv-x="1423" 
d="M729 -25q-649 0 -649 539v905h475v-891q0 -105 45 -157t141 -52q95 0 139 52t44 159v889h422v-905q0 -539 -617 -539zM739 1432q-116 0 -189 69t-73 170q0 103 73 172.5t189 69.5q118 0 191.5 -69.5t73.5 -172.5q0 -101 -74 -170t-191 -69zM739 1583q39 0 61.5 24
t22.5 64q0 42 -22.5 66t-61.5 24q-38 0 -60 -24.5t-22 -65.5q0 -40 22 -64t60 -24z" />
    <glyph glyph-name="uring" unicode="&#x16f;" horiz-adv-x="1216" 
d="M612 1178q-116 0 -189 70t-73 171q0 102 73 172t189 70q118 0 191.5 -70t73.5 -172q0 -101 -74 -171t-191 -70zM612 1329q39 0 61.5 25t22.5 65t-22.5 65t-61.5 25q-38 0 -60 -25t-22 -65t22 -65t60 -25zM403 -20q-337 0 -337 319v805h423v-711q0 -54 26 -76t83 -22
q61 0 125 27v782h424v-1104h-375l-27 98h-10q-76 -61 -153.5 -89.5t-178.5 -28.5z" />
    <glyph glyph-name="Uhungarumlaut" unicode="&#x170;" horiz-adv-x="1423" 
d="M801 1485l80 305h370l-133 -305h-317zM356 1485l80 305h371l-133 -305h-318zM729 -25q-649 0 -649 539v905h475v-891q0 -105 45 -157t141 -52q95 0 139 52t44 159v889h422v-905q0 -539 -617 -539z" />
    <glyph glyph-name="uhungarumlaut" unicode="&#x171;" horiz-adv-x="1216" 
d="M403 -20q-337 0 -337 319v805h423v-711q0 -54 26 -76t83 -22q61 0 125 27v782h424v-1104h-375l-27 98h-10q-76 -61 -153.5 -89.5t-178.5 -28.5zM674 1186l88 325h371l-142 -325h-317zM229 1186l88 325h371l-141 -325h-318z" />
    <glyph glyph-name="Uogonek" unicode="&#x172;" horiz-adv-x="1423" 
d="M778 -408q-120 0 -187 49.5t-67 131.5q0 122 131 204q-575 27 -575 537v905h475v-891q0 -105 45 -157t141 -52q95 0 139 52t44 159v889h422v-905q0 -241 -127 -377q-81 -81 -218 -129q-73 -27 -113 -58t-40 -77q0 -53 61 -53q16 0 52 6v-203q-64 -31 -183 -31z" />
    <glyph glyph-name="uogonek" unicode="&#x173;" horiz-adv-x="1216" 
d="M969 -408q-119 0 -186.5 50t-67.5 131q0 137 176 227h-119l-27 98h-10q-76 -61 -153.5 -89.5t-178.5 -28.5q-337 0 -337 319v805h423v-711q0 -54 26 -76t83 -22q46 0 125 27v782h424v-1098q-109 -70 -109 -133q0 -53 62 -53q15 0 51 6v-203q-72 -31 -182 -31z" />
    <glyph glyph-name="Wcircumflex" unicode="&#x174;" horiz-adv-x="2015" 
d="M645 1485l213 284h342l213 -284h-297l-88 78l-86 -78h-297zM338 0l-330 1419h475l158 -811h8l193 811h381l192 -811h8l174 811h410l-334 -1419h-481l-176 791h-6l-189 -791h-483z" />
    <glyph glyph-name="wcircumflex" unicode="&#x175;" horiz-adv-x="1673" 
d="M487 1186l215 325h342l216 -325h-299l-89 100l-86 -100h-299zM295 0l-285 1104h432l125 -565h8l144 565h309l143 -565h9l123 565h360l-283 -1104h-393l-145 553h-6l-150 -553h-391z" />
    <glyph glyph-name="Ycircumflex" unicode="&#x176;" horiz-adv-x="1363" 
d="M444 0v557l-446 862h506l211 -450h6l211 450h432l-442 -862v-557h-478zM334 1485l213 284h342l213 -284h-297l-88 78l-86 -78h-297z" />
    <glyph glyph-name="ycircumflex" unicode="&#x177;" horiz-adv-x="1200" 
d="M332 -406q-63 0 -133 9.5t-105 23.5v281q75 -14 121 -14q74 0 114.5 21.5t55.5 66.5l14 45l-401 1077h440l180 -598h9l180 598h395l-416 -1202q-57 -165 -161.5 -236.5t-292.5 -71.5zM236 1186l215 325h342l215 -325h-299l-88 100l-86 -100h-299z" />
    <glyph glyph-name="Ydieresis" unicode="&#x178;" horiz-adv-x="1363" 
d="M444 0v557l-446 862h506l211 -450h6l211 450h432l-442 -862v-557h-478zM776 1487v293h342v-293h-342zM317 1487v293h342v-293h-342z" />
    <glyph glyph-name="Zacute" unicode="&#x179;" horiz-adv-x="1220" 
d="M449 1485l108 301h424l-197 -301h-335zM55 0v319l559 762v9h-528v329h1069v-319l-559 -762v-8h567v-330h-1108z" />
    <glyph glyph-name="zacute" unicode="&#x17a;" horiz-adv-x="1026" 
d="M344 1186l123 325h422l-209 -325h-336zM37 0v295l438 514v6h-426v289h940v-270l-457 -537v-6h447v-291h-942z" />
    <glyph glyph-name="Zdotaccent" unicode="&#x17b;" horiz-adv-x="1220" 
d="M55 0v319l559 762v9h-528v329h1069v-319l-559 -762v-8h567v-330h-1108zM430 1487v293h408v-293h-408z" />
    <glyph glyph-name="zdotaccent" unicode="&#x17c;" horiz-adv-x="1026" 
d="M37 0v295l438 514v6h-426v289h940v-270l-457 -537v-6h447v-291h-942zM317 1196v305h428v-305h-428z" />
    <glyph glyph-name="Zcaron" unicode="&#x17d;" horiz-adv-x="1220" 
d="M1020 1769l-213 -284h-342l-213 284h297l88 -77l86 77h297zM55 0v319l559 762v9h-528v329h1069v-319l-559 -762v-8h567v-330h-1108z" />
    <glyph glyph-name="zcaron" unicode="&#x17e;" horiz-adv-x="1026" 
d="M915 1511l-215 -325h-342l-215 325h299l88 -102l86 102h299zM37 0v295l438 514v6h-426v289h940v-270l-457 -537v-6h447v-291h-942z" />
    <glyph glyph-name="florin" unicode="&#x192;" horiz-adv-x="989" 
d="M70 573v289h159l31 193q62 395 475 395q150 0 242 -43v-277q-57 13 -96 13q-73 0 -111.5 -30.5t-48.5 -104.5l-23 -146h193v-289h-236l-82 -540q-31 -213 -144.5 -310.5t-332.5 -97.5q-70 0 -131.5 14.5t-89.5 28.5v273q6 -1 21.5 -5t29.5 -6t31 -2q124 0 143 123l84 522
h-114z" />
    <glyph glyph-name="Aringacute" unicode="&#x1fa;" horiz-adv-x="1476" 
d="M-6 0l491 1419h512l484 -1419h-484l-73 236h-435l-69 -236h-426zM698 948l-125 -418h263l-127 418h-11zM569 1972l109 301h424l-197 -301h-336zM741 1458q-116 0 -189 69.5t-73 170.5q0 103 72.5 172t189.5 69q118 0 191.5 -69t73.5 -172q0 -101 -74 -170.5t-191 -69.5z
M741 1610q39 0 61.5 24t22.5 64q0 42 -22.5 66t-61.5 24q-38 0 -60 -24.5t-22 -65.5q0 -40 22 -64t60 -24z" />
    <glyph glyph-name="aringacute" unicode="&#x1fb;" horiz-adv-x="1105" 
d="M371 -20q-159 0 -252.5 79.5t-93.5 233.5q0 72 20.5 127t55.5 91.5t91 62.5t115.5 41t141.5 26l169 23v32q0 72 -41.5 95.5t-154.5 23.5q-163 0 -303 -35v277q170 67 465 67q224 0 340 -79t116 -265v-780h-354l-27 82h-12q-65 -102 -276 -102zM522 238q60 0 96 32v187
l-88 -6q-56 -3 -80 -28.5t-24 -80.5q0 -104 96 -104zM569 1178q-116 0 -189 70t-73 171q0 102 73 172t189 70q118 0 191.5 -70t73.5 -172q0 -101 -74 -171t-191 -70zM569 1329q39 0 61.5 25t22.5 65t-22.5 65t-61.5 25q-38 0 -60 -25t-22 -65t22 -65t60 -25zM385 1708
l109 301h424l-197 -301h-336z" />
    <glyph glyph-name="AEacute" unicode="&#x1fc;" horiz-adv-x="1990" 
d="M1081 1485l109 301h424l-197 -301h-336zM-14 0l704 1419h1227v-329h-543v-207h422v-324h-422v-229h568v-330h-1031v256h-370l-117 -256h-438zM903 1065l-233 -516h241v516h-8z" />
    <glyph glyph-name="aeacute" unicode="&#x1fd;" horiz-adv-x="1724" 
d="M379 -20q-165 0 -259.5 79.5t-94.5 233.5q0 72 21 126.5t55 90t90.5 61t115.5 39t142 25.5l169 22v39q0 72 -41.5 95.5t-154.5 23.5q-163 0 -303 -35v277q170 67 448 67q111 0 183 -24.5t112 -81.5q106 106 324 106q138 0 237 -39t158 -116.5t86 -183.5t27 -248v-84h-662
q18 -105 84 -143t203 -38q162 0 323 60v-256q-168 -96 -438 -96q-303 0 -452 143q-127 -143 -373 -143zM725 1186l123 325h422l-209 -325h-336zM1169 852q-59 0 -94 -40.5t-45 -141.5h262q0 99 -29.5 140.5t-93.5 41.5zM645 295q-24 73 -33 164l-82 -4q-56 -1 -80 -28.5
t-24 -82.5q0 -106 96 -106q69 0 123 57z" />
    <glyph glyph-name="Oslashacute" unicode="&#x1fe;" horiz-adv-x="1495" 
d="M741 -25q-242 0 -407 99l-64 -74h-270l178 207q-141 178 -141 473v49q0 153 41 276.5t109 204t162 134.5t194.5 77t210.5 23q232 0 399 -96l61 71h271l-174 -202q147 -177 147 -476v-49q0 -154 -40.5 -277.5t-109 -204.5t-162 -135t-194 -77t-211.5 -23zM561 1485
l109 301h424l-197 -301h-336zM750 305q114 0 172.5 84.5t58.5 276.5v94q0 13 -1 35.5t-1 31.5l-395 -460q54 -62 166 -62zM516 604l389 455q-55 55 -157 55q-114 0 -173 -84t-59 -276v-150z" />
    <glyph glyph-name="oslashacute" unicode="&#x1ff;" horiz-adv-x="1230" 
d="M614 -20q-204 0 -333 69l-45 -49h-236l143 162q-112 136 -112 373v22q0 143 45 253t125 177.5t184 102t229 34.5q195 0 328 -65l41 45h236l-136 -154q117 -135 117 -379v-22q0 -143 -45 -253.5t-125.5 -178.5t-185.5 -102.5t-230 -34.5zM430 1186l123 325h422l-209 -325
h-336zM616 248q56 0 91 22.5t57 86t22 173.5v86l-290 -323q40 -45 120 -45zM444 498l285 321q-37 37 -117 37q-84 0 -126 -60.5t-42 -220.5v-77z" />
    <glyph glyph-name="Scommaaccent" unicode="&#x218;" horiz-adv-x="1157" 
d="M358 -373l21 305h364l-98 -305h-287zM532 -25q-326 0 -489 80v338q114 -37 212.5 -56.5t215.5 -19.5q105 0 148 23t43 74q0 45 -29.5 64t-124.5 36l-92 18q-94 17 -160.5 46t-118.5 80t-78 131.5t-26 191.5q0 102 33.5 185.5t100 146t174.5 97t249 34.5q293 0 444 -72
v-332q-192 66 -393 66q-85 0 -124.5 -21.5t-39.5 -68.5q0 -41 32 -60.5t120 -37.5l90 -17q105 -19 176.5 -48t125.5 -79t79.5 -126.5t25.5 -184.5q0 -240 -153 -364t-441 -124z" />
    <glyph glyph-name="scommaaccent" unicode="&#x219;" horiz-adv-x="972" 
d="M274 -373l21 305h364l-98 -305h-287zM432 -20q-111 0 -218 19.5t-175 49.5v277q178 -60 330 -60q91 0 128.5 16t37.5 52q0 31 -21 42t-82 21l-102 15q-150 24 -224.5 108t-74.5 240q0 176 117.5 270t355.5 94q223 0 368 -55v-274q-58 15 -87 22t-93.5 16t-126.5 9
q-74 0 -105.5 -13.5t-31.5 -48.5q0 -31 24 -43t89 -22l100 -15q164 -25 233.5 -108t69.5 -230q0 -192 -123.5 -287t-388.5 -95z" />
    <glyph glyph-name="uni0237" unicode="&#x237;" horiz-adv-x="575" 
d="M78 -403q-140 0 -217 34v267q63 -7 73 -7q142 0 142 123v1090h424v-1135q0 -178 -99.5 -275t-322.5 -97z" />
    <glyph glyph-name="circumflex" unicode="&#x2c6;" 
d="M125 1186l215 325h342l215 -325h-299l-88 100l-86 -100h-299z" />
    <glyph glyph-name="caron" unicode="&#x2c7;" 
d="M897 1511l-215 -325h-342l-215 325h299l88 -102l86 102h299z" />
    <glyph glyph-name="breve" unicode="&#x2d8;" 
d="M510 1194q-157 0 -249 86t-97 225h264q10 -73 82 -73q74 0 84 73h264q-5 -139 -97.5 -225t-250.5 -86z" />
    <glyph glyph-name="dotaccent" unicode="&#x2d9;" 
d="M295 1196v305h428v-305h-428z" />
    <glyph glyph-name="ring" unicode="&#x2da;" 
d="M510 1178q-116 0 -189 70t-73 171q0 102 73 172t189 70q117 0 190.5 -70t73.5 -172q0 -101 -73.5 -171t-190.5 -70zM510 1329q39 0 61.5 25t22.5 65t-22.5 65t-61.5 25q-38 0 -60 -25t-22 -65t22 -65t60 -25z" />
    <glyph glyph-name="ogonek" unicode="&#x2db;" 
d="M516 -408q-120 0 -187 49.5t-67 131.5q0 140 178 227h234q-88 -78 -88 -127q0 -53 61 -53q9 0 51 6v-203q-67 -31 -182 -31z" />
    <glyph glyph-name="tilde" unicode="&#x2dc;" 
d="M106 1200q18 161 93 239.5t176 78.5q60 0 136 -31t95 -31q46 0 62 57h243q-16 -161 -90.5 -239t-175.5 -78q-60 0 -137 30.5t-94 30.5q-49 0 -62 -57h-246z" />
    <glyph glyph-name="hungarumlaut" unicode="&#x2dd;" 
d="M571 1186l88 325h371l-141 -325h-318zM127 1186l88 325h371l-142 -325h-317z" />
    <glyph glyph-name="Wgrave" unicode="&#x1e80;" horiz-adv-x="2015" 
d="M879 1485l-197 305h424l108 -305h-335zM338 0l-330 1419h475l158 -811h8l193 811h381l192 -811h8l174 811h410l-334 -1419h-481l-176 791h-6l-189 -791h-483z" />
    <glyph glyph-name="wgrave" unicode="&#x1e81;" horiz-adv-x="1673" 
d="M295 0l-285 1104h432l125 -565h8l144 565h309l143 -565h9l123 565h360l-283 -1104h-393l-145 553h-6l-150 -553h-391zM715 1186l-209 325h422l123 -325h-336z" />
    <glyph glyph-name="Wacute" unicode="&#x1e82;" horiz-adv-x="2015" 
d="M844 1485l108 301h424l-196 -301h-336zM338 0l-330 1419h475l158 -811h8l193 811h381l192 -811h8l174 811h410l-334 -1419h-481l-176 791h-6l-189 -791h-483z" />
    <glyph glyph-name="wacute" unicode="&#x1e83;" horiz-adv-x="1673" 
d="M694 1186l123 325h422l-209 -325h-336zM295 0l-285 1104h432l125 -565h8l144 565h309l143 -565h9l123 565h360l-283 -1104h-393l-145 553h-6l-150 -553h-391z" />
    <glyph glyph-name="Wdieresis" unicode="&#x1e84;" horiz-adv-x="2015" 
d="M1087 1487v293h343v-293h-343zM629 1487v293h342v-293h-342zM338 0l-330 1419h475l158 -811h8l193 811h381l192 -811h8l174 811h410l-334 -1419h-481l-176 791h-6l-189 -791h-483z" />
    <glyph glyph-name="wdieresis" unicode="&#x1e85;" horiz-adv-x="1673" 
d="M926 1196v305h342v-305h-342zM479 1196v305h342v-305h-342zM295 0l-285 1104h432l125 -565h8l144 565h309l143 -565h9l123 565h360l-283 -1104h-393l-145 553h-6l-150 -553h-391z" />
    <glyph glyph-name="Ygrave" unicode="&#x1ef2;" horiz-adv-x="1363" 
d="M444 0v557l-446 862h506l211 -450h6l211 450h432l-442 -862v-557h-478zM565 1485l-196 305h424l108 -305h-336z" />
    <glyph glyph-name="ygrave" unicode="&#x1ef3;" horiz-adv-x="1200" 
d="M332 -406q-63 0 -133 9.5t-105 23.5v281q75 -14 121 -14q74 0 114.5 21.5t55.5 66.5l14 45l-401 1077h440l180 -598h9l180 598h395l-416 -1202q-57 -165 -161.5 -236.5t-292.5 -71.5zM467 1186l-209 325h422l123 -325h-336z" />
    <glyph glyph-name="uni2009" unicode="&#x2009;" horiz-adv-x="126" 
 />
    <glyph glyph-name="endash" unicode="&#x2013;" horiz-adv-x="884" 
d="M49 430v315h787v-315h-787z" />
    <glyph glyph-name="emdash" unicode="&#x2014;" horiz-adv-x="1607" 
d="M49 430v315h1510v-315h-1510z" />
    <glyph glyph-name="quoteleft" unicode="&#x2018;" horiz-adv-x="493" 
d="M35 946l86 473h317l-20 -473h-383z" />
    <glyph glyph-name="quoteright" unicode="&#x2019;" horiz-adv-x="493" 
d="M55 946l23 473h383l-86 -473h-320z" />
    <glyph glyph-name="quotesinglbase" unicode="&#x201a;" horiz-adv-x="493" 
d="M55 -121l23 473h383l-86 -473h-320z" />
    <glyph glyph-name="quotedblleft" unicode="&#x201c;" horiz-adv-x="960" 
d="M500 946l86 473h319l-22 -473h-383zM35 946l86 473h317l-20 -473h-383z" />
    <glyph glyph-name="quotedblright" unicode="&#x201d;" horiz-adv-x="960" 
d="M522 946l21 473h385l-86 -473h-320zM55 946l23 473h383l-86 -473h-320z" />
    <glyph glyph-name="quotedblbase" unicode="&#x201e;" horiz-adv-x="960" 
d="M522 -121l21 473h385l-86 -473h-320zM55 -121l23 473h383l-86 -473h-320z" />
    <glyph glyph-name="dagger" unicode="&#x2020;" horiz-adv-x="1048" 
d="M322 -141v903h-283v325h283v332h405v-332h283v-325h-283v-903h-405z" />
    <glyph glyph-name="daggerdbl" unicode="&#x2021;" horiz-adv-x="1050" 
d="M39 190v326h285v246h-285v325h285v332h403v-332h285v-325h-285v-246h285v-326h-285v-331h-403v331h-285z" />
    <glyph glyph-name="bullet" unicode="&#x2022;" horiz-adv-x="776" 
d="M385 317q-137 0 -234.5 97.5t-97.5 232.5q0 140 96.5 236t235.5 96q138 0 239 -96.5t101 -235.5q0 -134 -101.5 -232t-238.5 -98z" />
    <glyph glyph-name="ellipsis" unicode="&#x2026;" horiz-adv-x="1597" 
d="M1130 0v360h400v-360h-400zM68 0v360h399v-360h-399zM600 0v360h399v-360h-399z" />
    <glyph glyph-name="perthousand" unicode="&#x2030;" horiz-adv-x="2836" 
d="M442 608q-181 0 -293 104t-112 302v16q0 202 113.5 308t291.5 106q85 0 158 -25.5t129.5 -74.5t88.5 -128t32 -180v-16q0 -201 -113.5 -306.5t-294.5 -105.5zM362 -82l932 1542h287l-932 -1542h-287zM2390 -20q-181 0 -292 103t-111 300v16q0 203 113.5 309.5
t291.5 106.5q85 0 158 -25.5t129.5 -74t88.5 -127.5t32 -180v-19q0 -199 -114 -304t-296 -105zM1520 -20q-181 0 -292.5 103t-111.5 300v16q0 103 31.5 183.5t87 131t128 76t159.5 25.5q177 0 291 -104.5t114 -302.5v-19q0 -199 -113.5 -304t-293.5 -105zM442 821
q54 0 73.5 38.5t19.5 146.5v32q0 109 -20.5 151t-72.5 42q-51 0 -69.5 -40.5t-18.5 -148.5v-32q0 -108 18.5 -148.5t69.5 -40.5zM2392 193q54 0 73 37.5t19 146.5v33q0 108 -20 150t-72 42q-51 0 -69.5 -40.5t-18.5 -147.5v-33q0 -108 18.5 -148t69.5 -40zM1522 193
q53 0 71.5 38t18.5 146v33q0 109 -19 150.5t-71 41.5t-71 -40.5t-19 -147.5v-33q0 -108 19 -148t71 -40z" />
    <glyph glyph-name="uni2032" unicode="&#x2032;" horiz-adv-x="493" 
d="M55 946l23 473h383l-86 -473h-320z" />
    <glyph glyph-name="uni2033" unicode="&#x2033;" horiz-adv-x="960" 
d="M522 946l21 473h385l-86 -473h-320zM55 946l23 473h383l-86 -473h-320z" />
    <glyph glyph-name="guilsinglleft" unicode="&#x2039;" horiz-adv-x="636" 
d="M236 104l-183 365v96l183 365h344l-181 -412l181 -414h-344z" />
    <glyph glyph-name="guilsinglright" unicode="&#x203a;" horiz-adv-x="636" 
d="M57 104l181 412l-181 414h344l183 -365v-96l-183 -365h-344z" />
    <glyph glyph-name="fraction" unicode="&#x2044;" horiz-adv-x="546" 
d="M-406 -82l1045 1542h287l-1045 -1542h-287z" />
    <glyph glyph-name="Euro" unicode="&#x20ac;" horiz-adv-x="1267" 
d="M35 750v213h125q23 103 69.5 184.5t109 136.5t143 91.5t168 52.5t186.5 16q273 0 383 -55v-324q-119 39 -267 39q-114 0 -184.5 -32.5t-101.5 -108.5h360v-213h-385v-80h385v-213h-358q29 -74 96 -108t182 -34q144 0 283 47v-317q-165 -70 -369 -70q-302 0 -477 117
t-225 365h-123v213h104v80h-104z" />
    <glyph glyph-name="trademark" unicode="&#x2122;" horiz-adv-x="1542" 
d="M672 788v631h315l82 -315h6l80 315h344v-631h-252v357h-4l-92 -357h-197l-90 357h-6v-357h-186zM182 788v418h-153v213h577v-213h-155v-418h-269z" />
    <glyph glyph-name="onethird" unicode="&#x2153;" horiz-adv-x="1855" 
d="M1427 -14q-181 0 -301 49v205q105 -23 191 -23q78 0 109.5 15.5t31.5 50.5q0 63 -100 63h-113v191h107q58 0 83 15.5t25 47.5q0 59 -127 59q-76 0 -182 -18v199q137 49 299 49q155 0 245.5 -57.5t90.5 -167.5q0 -77 -46 -129.5t-122 -73.5v-4q96 -15 143 -64t47 -143
q0 -124 -98 -194t-283 -70zM182 547v569l-147 -14v196l266 123h215v-874h-334zM164 -82l1044 1542h287l-1044 -1542h-287z" />
    <glyph glyph-name="twothirds" unicode="&#x2154;" horiz-adv-x="2021" 
d="M1593 -14q-181 0 -301 49v205q105 -23 191 -23q78 0 109.5 15.5t31.5 50.5q0 63 -100 63h-113v191h107q58 0 83 15.5t25 47.5q0 59 -127 59q-76 0 -182 -18v199q137 49 299 49q155 0 245.5 -57.5t90.5 -167.5q0 -77 -46 -129.5t-122 -73.5v-4q96 -15 143 -64t47 -143
q0 -124 -98 -194t-283 -70zM41 547v217l160 129q81 68 116 111.5t35 93.5q0 90 -125 90q-85 0 -174 -33v223q139 58 309 58q169 0 258 -72.5t89 -204.5q0 -70 -28.5 -129t-71.5 -101.5t-113 -90.5l-74 -54v-4h291v-233h-672zM348 -82l1045 1542h286l-1044 -1542h-287z" />
    <glyph glyph-name="oneeighth" unicode="&#x215b;" horiz-adv-x="1908" 
d="M1458 -14q-200 0 -296.5 64t-96.5 167q0 63 41.5 113.5t116.5 81.5q-70 37 -100.5 85.5t-30.5 123.5q0 125 102.5 196.5t278.5 71.5q181 0 272.5 -64t91.5 -176q0 -127 -141 -182q91 -34 130.5 -82t39.5 -129q0 -129 -108 -199.5t-300 -70.5zM1450 176q100 0 100 76
q0 38 -29 62t-122 40q-53 -37 -53 -98q0 -80 104 -80zM1509 545q58 30 58 84q0 32 -23 50.5t-67 18.5q-43 0 -64.5 -19t-21.5 -48q0 -32 24 -50.5t94 -35.5zM182 547v569l-147 -14v196l266 123h215v-874h-334zM172 -82l1045 1542h286l-1044 -1542h-287z" />
    <glyph glyph-name="threeeighths" unicode="&#x215c;" horiz-adv-x="1984" 
d="M1534 -14q-200 0 -296.5 64t-96.5 167q0 63 41 113.5t116 81.5q-70 37 -100.5 85.5t-30.5 123.5q0 125 102.5 196.5t278.5 71.5q181 0 273 -64t92 -176q0 -127 -141 -182q91 -34 130.5 -82t39.5 -129q0 -129 -108 -199.5t-300 -70.5zM1526 176q100 0 100 76q0 38 -29 62
t-122 40q-54 -37 -54 -98q0 -36 25.5 -58t79.5 -22zM1585 545q57 29 57 84q0 32 -23 50.5t-67 18.5q-43 0 -64.5 -19t-21.5 -48q0 -32 24.5 -50.5t94.5 -35.5zM268 -82l1045 1542h286l-1044 -1542h-287zM342 532q-184 0 -301 52v202q101 -22 190 -22q77 0 109.5 16t32.5 49
q0 64 -101 64h-112v190h106q109 0 109 64q0 59 -127 59q-76 0 -182 -18v198q140 50 299 50q155 0 245 -58t90 -168q0 -77 -45.5 -129t-122.5 -73v-4q97 -16 144 -64t47 -143q0 -124 -98.5 -194.5t-282.5 -70.5z" />
    <glyph glyph-name="fiveeighths" unicode="&#x215d;" horiz-adv-x="1972" 
d="M1522 -14q-200 0 -297 64t-97 167q0 63 41.5 113.5t116.5 81.5q-70 37 -100.5 85.5t-30.5 123.5q0 125 102.5 196.5t278.5 71.5q181 0 273 -64t92 -176q0 -58 -35 -106t-107 -76q91 -34 130.5 -82t39.5 -129q0 -130 -107.5 -200t-299.5 -70zM1513 176q101 0 101 76
q0 38 -29.5 62t-122.5 40q-53 -37 -53 -98q0 -80 104 -80zM1573 545q57 29 57 84q0 32 -23 50.5t-67 18.5q-43 0 -64.5 -19t-21.5 -48q0 -32 24.5 -50.5t94.5 -35.5zM346 532q-176 0 -307 52v209q105 -23 190 -23q146 0 146 72q0 38 -33.5 53.5t-112.5 15.5q-87 0 -153 -12
l22 520h584v-225h-348l-6 -109q53 11 102 11q152 0 224.5 -62.5t72.5 -202.5q0 -141 -99 -220t-282 -79zM258 -82l1045 1542h286l-1044 -1542h-287z" />
    <glyph glyph-name="seveneighths" unicode="&#x215e;" horiz-adv-x="1921" 
d="M1470 -14q-200 0 -296.5 64t-96.5 167q0 63 41.5 113.5t116.5 81.5q-70 37 -100.5 85.5t-30.5 123.5q0 125 102.5 196.5t278.5 71.5q181 0 272.5 -64t91.5 -176q0 -127 -141 -182q91 -34 130.5 -82t39.5 -129q0 -129 -108 -199.5t-300 -70.5zM1462 176q101 0 101 76
q0 38 -29.5 62t-122.5 40q-53 -37 -53 -98q0 -80 104 -80zM1522 545q57 29 57 84q0 32 -23 50.5t-67 18.5q-43 0 -64.5 -19t-21.5 -48q0 -32 24.5 -50.5t94.5 -35.5zM72 547l327 620v4h-360v248h702v-217l-315 -655h-354zM182 -82l1045 1542h286l-1044 -1542h-287z" />
    <glyph glyph-name="minus" unicode="&#x2212;" horiz-adv-x="1060" 
d="M49 543v321h961v-321h-961z" />
    <glyph glyph-name="uni24C5" unicode="&#x24c5;" horiz-adv-x="1576" 
d="M786 -29q-155 0 -292.5 58.5t-234.5 157t-153.5 234t-56.5 284.5q0 199 95.5 366t265 265t376.5 98q155 0 293 -57.5t236 -155.5t155.5 -232.5t57.5 -283.5t-57.5 -284.5t-155.5 -234t-236.5 -157t-292.5 -58.5zM786 88q261 0 432 174.5t171 442.5q0 176 -78 316
t-215.5 218t-309.5 78q-262 0 -430 -171.5t-168 -440.5q0 -177 76 -318t212.5 -220t309.5 -79zM481 328v753h379q142 0 223.5 -69.5t81.5 -194.5q0 -132 -78.5 -205t-226.5 -73h-112v-211h-267zM745 719h72q45 0 65.5 20t20.5 64q0 84 -88 84h-70v-168z" />
    <glyph glyph-name="space_uni0326" horiz-adv-x="999" 
d="M307 -373l21 305h364l-98 -305h-287z" />
    <glyph glyph-name="caron.alt" horiz-adv-x="999" 
d="M631 1176h-221l12 337h272z" />
    <glyph glyph-name="space_uni0326.alt" horiz-adv-x="999" 
d="M692 1497l-22 -305h-363l99 305h286z" />
    <glyph glyph-name="acute.pl" 
d="M338 1186l76 325h415l-163 -325h-328z" />
    <glyph glyph-name="grave.uc" 
d="M369 1485l-197 305h424l109 -305h-336z" />
    <glyph glyph-name="dieresis.uc" 
d="M569 1487v293h342v-293h-342zM111 1487v293h342v-293h-342z" />
    <glyph glyph-name="macron.uc" 
d="M186 1489v264h650v-264h-650z" />
    <glyph glyph-name="acute.uc" 
d="M317 1485l109 301h424l-197 -301h-336z" />
    <glyph glyph-name="circumflex.uc" 
d="M127 1485l213 284h342l213 -284h-297l-88 78l-86 -78h-297z" />
    <glyph glyph-name="caron.uc" 
d="M895 1769l-213 -284h-342l-213 284h297l88 -77l86 77h297z" />
    <glyph glyph-name="breve.uc" 
d="M510 1479q-157 0 -249 81t-97 214h264q10 -76 82 -76q74 0 84 76h264q-5 -133 -97.5 -214t-250.5 -81z" />
    <glyph glyph-name="dotaccent.uc" 
d="M305 1487v293h408v-293h-408z" />
    <glyph glyph-name="ring.uc" 
d="M510 1458q-116 0 -189 69.5t-73 170.5q0 103 72.5 172t189.5 69q118 0 191 -69t73 -172q0 -101 -73.5 -170.5t-190.5 -69.5zM510 1610q39 0 61.5 24t22.5 64q0 42 -22.5 66t-61.5 24q-38 0 -60 -24.5t-22 -65.5q0 -40 22 -64t60 -24z" />
    <glyph glyph-name="tilde.uc" 
d="M106 1487q9 83 35 143.5t63.5 94.5t79.5 49.5t91 15.5q60 0 136 -27.5t95 -27.5q45 0 62 49h243q-16 -158 -89.5 -229.5t-176.5 -71.5q-60 0 -137 27.5t-94 27.5q-49 0 -62 -51h-246z" />
    <glyph glyph-name="hungarumlaut.uc" 
d="M571 1485l80 305h371l-133 -305h-318zM127 1485l80 305h371l-134 -305h-317z" />
    <glyph glyph-name="acute.ucpl" 
d="M334 1485l69 305h416l-155 -305h-330z" />
    <glyph glyph-name="Cacute.pl" horiz-adv-x="1187" 
d="M748 -25q-344 0 -527.5 174.5t-183.5 528.5v51q0 152 36.5 273.5t101.5 203t157 136t198.5 78.5t231.5 24q254 0 377 -55v-338q-121 41 -267 41q-167 0 -247 -80t-80 -256v-60q0 -190 72 -279t247 -89q149 0 283 49v-332q-162 -70 -399 -70zM557 1485l70 305h415
l-155 -305h-330z" />
    <glyph glyph-name="Nacute.pl" horiz-adv-x="1478" 
d="M614 1485l70 305h416l-156 -305h-330zM88 0v1419h508l385 -682h8v682h402v-1419h-447l-446 782h-9v-782h-401z" />
    <glyph glyph-name="Oacute.pl" horiz-adv-x="1495" 
d="M584 1485l69 305h416l-156 -305h-329zM741 -25q-116 0 -218 23.5t-192.5 77.5t-154.5 134.5t-101.5 200.5t-37.5 269v49q0 153 41 276.5t109 204t162 134.5t194.5 77t210.5 23q117 0 219 -23.5t192 -77.5t154.5 -134t101.5 -199.5t37 -268.5v-49q0 -154 -40.5 -277.5
t-109 -204.5t-162 -135t-194 -77t-211.5 -23zM750 315q105 0 156.5 82.5t51.5 270.5v73q0 139 -24 219.5t-68 112t-118 31.5q-105 0 -158 -81.5t-53 -270.5v-72q0 -109 14.5 -182.5t44 -112.5t66 -54.5t88.5 -15.5z" />
    <glyph glyph-name="Sacute.pl" horiz-adv-x="1157" 
d="M532 -25q-326 0 -489 80v338q114 -37 212.5 -56.5t215.5 -19.5q105 0 148 23t43 74q0 45 -29.5 64t-124.5 36l-92 18q-94 17 -160.5 46t-118.5 80t-78 131.5t-26 191.5q0 102 33.5 185.5t100 146t174.5 97t249 34.5q293 0 444 -72v-332q-192 66 -393 66
q-85 0 -124.5 -21.5t-39.5 -68.5q0 -41 32 -60.5t120 -37.5l90 -17q105 -19 176.5 -48t125.5 -79t79.5 -126.5t25.5 -184.5q0 -240 -153 -364t-441 -124zM422 1485l70 305h415l-155 -305h-330z" />
    <glyph glyph-name="Zacute.pl" horiz-adv-x="1220" 
d="M55 0v319l559 762v9h-528v329h1069v-319l-559 -762v-8h567v-330h-1108zM463 1485l69 305h416l-155 -305h-330z" />
    <glyph glyph-name="cacute.pl" horiz-adv-x="976" 
d="M600 -20q-282 0 -425.5 142t-143.5 413v22q0 276 152.5 421.5t434.5 145.5q210 0 312 -51v-301q-98 39 -217 39q-240 0 -240 -229v-27q0 -139 54.5 -200.5t181.5 -61.5q98 0 227 39v-283q-123 -69 -336 -69zM387 1186l76 325h416l-164 -325h-328z" />
    <glyph glyph-name="idotaccent" horiz-adv-x="575" 
d="M76 0v1104h424v-1104h-424zM74 1196v305h428v-305h-428z" />
    <glyph glyph-name="nacute.pl" horiz-adv-x="1226" 
d="M455 1186l75 325h416l-164 -325h-327zM70 0v1104h411v-98h11q135 118 342 118q158 0 242.5 -72t84.5 -231v-821h-424v702q0 53 -27 75t-85 22t-131 -25v-774h-424z" />
    <glyph glyph-name="oacute.pl" horiz-adv-x="1230" 
d="M614 -20q-285 0 -434 144t-149 411v22q0 143 45 253t125 177.5t184 102t229 34.5q289 0 437.5 -140t148.5 -413v-22q0 -143 -45 -253.5t-125.5 -178.5t-185.5 -102.5t-230 -34.5zM616 262q50 0 80.5 20.5t49 81t18.5 166.5v33q0 90 -10 147.5t-32 85.5t-46.5 37t-63.5 9
q-49 0 -79 -20.5t-48 -80.5t-18 -166v-34q0 -87 10 -143.5t31 -85.5t46 -39.5t62 -10.5zM442 1186l76 325h416l-164 -325h-328z" />
    <glyph glyph-name="sacute.pl" horiz-adv-x="972" 
d="M432 -20q-111 0 -218 19.5t-175 49.5v277q178 -60 330 -60q91 0 128.5 16t37.5 52q0 31 -21 42t-82 21l-102 15q-150 24 -224.5 108t-74.5 240q0 176 117.5 270t355.5 94q223 0 368 -55v-274q-58 15 -87 22t-93.5 16t-126.5 9q-74 0 -105.5 -13.5t-31.5 -48.5
q0 -31 24 -43t89 -22l100 -15q164 -25 233.5 -108t69.5 -230q0 -192 -123.5 -287t-388.5 -95zM322 1186l75 325h416l-164 -325h-327z" />
    <glyph glyph-name="zacute.pl" horiz-adv-x="1026" 
d="M37 0v295l438 514v6h-426v289h940v-270l-457 -537v-6h447v-291h-942zM360 1186l76 325h416l-164 -325h-328z" />
    <glyph glyph-name="dollar.old" horiz-adv-x="1126" 
d="M258 -225l49 215q-162 18 -262 67v301q183 -58 332 -73l51 221q-196 28 -294.5 123.5t-98.5 290.5q0 192 134.5 307.5t403.5 115.5h50l30 130h176l-32 -142q128 -16 213 -59v-297q-128 42 -281 59l-47 -200q218 -32 314 -121.5t96 -280.5q0 -224 -148 -339.5t-424 -115.5
h-35l-47 -202h-180zM707 381q0 40 -20.5 60t-86.5 34l-45 -192q84 6 118 30t34 68zM406 954q0 -37 22.5 -58t81.5 -36l43 182q-81 -3 -114 -24t-33 -64z" />
    <glyph glyph-name="Euro.old" horiz-adv-x="1208" 
d="M35 696v199h121q52 230 221.5 339t417.5 109q249 0 366 -53v-301q-116 37 -258 37q-108 0 -176 -31t-100 -100h348v-199h-375v-73h375v-197h-348q28 -68 92.5 -100.5t175.5 -32.5q149 0 272 45v-295q-143 -66 -344 -66q-299 0 -463 109.5t-208 339.5h-117v197h100v73
h-100z" />
    <glyph glyph-name="sterling.old" horiz-adv-x="1103" 
d="M53 512v274h117v93q0 157 69 262.5t186.5 153.5t279.5 48q234 0 342 -55v-299q-118 25 -211 25q-48 0 -88 -9.5t-73 -29.5t-52 -57t-19 -87v-45h295v-274h-297q-16 -133 -131 -201v-4h596v-307h-1022v289q55 22 90 69t35 117v37h-117z" />
    <glyph glyph-name="yen.old" horiz-adv-x="1257" 
d="M414 0v166h-305v248h305v82h-305v247h206l-317 576h459l205 -445h4l202 445h392l-314 -576h207v-247h-305v-82h305v-248h-305v-166h-434z" />
    <glyph glyph-name="zero.old" horiz-adv-x="1318" 
d="M655 -25q-105 0 -196 21t-170 67.5t-134.5 116.5t-87.5 173t-32 231v51q0 132 35.5 238t95 176t141.5 116.5t171.5 67t187.5 20.5q131 0 240.5 -35.5t195.5 -107t134 -191t48 -276.5v-51q0 -129 -35 -234t-94.5 -175.5t-141 -118t-171 -68.5t-187.5 -21zM657 270
q60 0 94.5 23.5t54 90.5t19.5 189v62q0 127 -20.5 199t-54.5 97t-91 25t-90.5 -23.5t-53 -92t-19.5 -191.5v-63q0 -179 37 -247.5t124 -68.5z" />
    <glyph glyph-name="one.old" horiz-adv-x="796" 
d="M246 0v809l-211 -16v254l393 178h258v-1225h-440z" />
    <glyph glyph-name="two.old" horiz-adv-x="1044" 
d="M27 0v276l266 211q134 106 184.5 165t50.5 124q0 68 -48 97.5t-150 29.5q-142 0 -279 -53v297q184 92 455 92q244 0 373 -94.5t129 -280.5q0 -150 -76.5 -252t-251.5 -209l-154 -98v-6h482v-299h-981z" />
    <glyph glyph-name="three.old" horiz-adv-x="1089" 
d="M475 -229q-268 0 -444 86v290q151 -45 317 -45q238 0 238 146q0 127 -189 127h-159v284h147q190 0 190 125q0 65 -49.5 94t-148.5 29q-132 0 -301 -41v293q207 80 446 80q231 0 359.5 -91.5t128.5 -264.5q0 -131 -71 -216t-196 -118v-8q154 -29 230 -109.5t76 -234.5
q0 -199 -150 -312.5t-424 -113.5z" />
    <glyph glyph-name="four.old" horiz-adv-x="1325" 
d="M674 -209v320h-639v272l657 829h414v-811h188v-290h-188v-320h-432zM387 401h295v379h-8l-287 -372v-7z" />
    <glyph glyph-name="five.old" horiz-adv-x="1075" 
d="M449 -229q-147 0 -243 23t-179 63v290q151 -45 297 -45q131 0 189 38.5t58 121.5q0 82 -56.5 116t-190.5 34q-121 0 -244 -27l41 829h868v-311h-557l-14 -229q75 28 180 28q438 0 438 -432q0 -233 -156 -366t-431 -133z" />
    <glyph glyph-name="six.old" horiz-adv-x="1251" 
d="M662 -25q-302 0 -462.5 168.5t-160.5 483.5v75q0 190 51.5 333.5t147 232t224.5 132.5t290 44q252 0 376 -62v-301q-46 14 -126.5 24.5t-151.5 10.5q-183 0 -265 -69t-93 -226q113 80 296 80q206 0 319.5 -103t113.5 -311q0 -228 -145.5 -370t-413.5 -142zM649 256
q135 0 135 207q0 56 -11 92t-33.5 53t-47.5 23t-63 6q-67 0 -135 -33v-61q0 -156 38.5 -221.5t116.5 -65.5z" />
    <glyph glyph-name="seven.old" horiz-adv-x="1087" 
d="M104 -205l504 1088v10h-575v321h1022v-284l-465 -1135h-486z" />
    <glyph glyph-name="eight.old" horiz-adv-x="1247" 
d="M616 -25q-293 0 -437 103.5t-144 273.5q0 109 64 195t184 133q-114 60 -162.5 139t-48.5 205q0 195 151 307.5t410 112.5q262 0 398 -101t136 -282q0 -212 -221 -307q142 -57 204 -135t62 -211q0 -204 -157.5 -318.5t-438.5 -114.5zM602 254q87 0 132.5 38t45.5 103
q0 47 -18 79t-75 62.5t-159 53.5q-108 -70 -108 -187q0 -68 46 -108.5t136 -40.5zM682 874q106 56 106 160q0 57 -37.5 92t-113.5 35q-70 0 -107.5 -34.5t-37.5 -88.5q0 -58 41.5 -95.5t148.5 -68.5z" />
    <glyph glyph-name="nine.old" horiz-adv-x="1251" 
d="M504 -229q-262 0 -389 67v301q47 -16 132.5 -28.5t158.5 -12.5q184 0 263.5 67t90.5 226q-116 -78 -297 -78q-206 0 -319 102.5t-113 311.5q0 111 36.5 204t106 162t179 107.5t247.5 38.5q302 0 458 -164.5t156 -486.5v-76q0 -190 -51 -333t-145.5 -231.5t-223 -132.5
t-290.5 -44zM623 575q69 0 137 35v60q0 155 -39.5 221.5t-118.5 66.5q-135 0 -135 -206q0 -106 39 -141.5t117 -35.5z" />
    <glyph glyph-name="percent.old" horiz-adv-x="1859" 
d="M418 563q-170 0 -277.5 95t-107.5 278v14q0 187 110 286t277 99q79 0 148 -23.5t123 -68.5t85 -118.5t31 -166.5v-16q0 -185 -109 -282t-280 -97zM1438 -18q-170 0 -277.5 95.5t-107.5 278.5v15q0 126 53.5 215t139 129.5t194.5 40.5q79 0 148 -23.5t123 -69.5t85 -119.5
t31 -166.5v-17q0 -93 -30.5 -166.5t-84.5 -119t-123.5 -69t-150.5 -23.5zM352 -74l865 1424h274l-864 -1424h-275zM1440 188q50 0 67 31t17 131v29q0 100 -18 136t-66 36t-66 -35t-18 -133v-29q0 -99 18 -132.5t66 -33.5zM420 768q50 0 67 31.5t17 130.5v31q0 100 -17 134.5
t-67 34.5q-48 0 -66 -34.5t-18 -132.5v-29q0 -99 18 -132.5t66 -33.5z" />
    <glyph glyph-name="perthousand.old" horiz-adv-x="2686" 
d="M418 563q-170 0 -277.5 95t-107.5 278v14q0 187 110 286t277 99q79 0 148 -23.5t123 -68.5t85 -118.5t31 -166.5v-16q0 -185 -109 -282t-280 -97zM1438 -18q-170 0 -277.5 95.5t-107.5 278.5v15q0 126 53.5 215t139 129.5t194.5 40.5q79 0 148 -23.5t123 -69.5t85 -119.5
t31 -166.5v-17q0 -93 -30.5 -166.5t-84.5 -119t-123.5 -69t-150.5 -23.5zM352 -74l865 1424h274l-864 -1424h-275zM1440 188q50 0 67 31t17 131v29q0 100 -18 136t-66 36t-66 -35t-18 -133v-29q0 -99 18 -132.5t66 -33.5zM420 768q50 0 67 31.5t17 130.5v31q0 100 -17 134.5
t-67 34.5q-48 0 -66 -34.5t-18 -132.5v-29q0 -99 18 -132.5t66 -33.5zM2265 -18q-170 0 -278.5 96t-108.5 278v15q0 187 110 286t277 99q79 0 148.5 -23.5t123.5 -69.5t85.5 -119.5t31.5 -166.5v-17q0 -93 -30.5 -166.5t-84.5 -119t-123.5 -69t-150.5 -23.5zM2265 188
q50 0 67 31t17 131v29q0 101 -17.5 136.5t-66.5 35.5q-47 0 -64.5 -35t-17.5 -133v-29q0 -100 17 -133t65 -33z" />
    <glyph glyph-name="plus.old" horiz-adv-x="1091" 
d="M367 164v321h-310v322h310v323h358v-323h309v-322h-309v-321h-358z" />
    <glyph glyph-name="minus.old" horiz-adv-x="1075" 
d="M57 485v322h961v-322h-961z" />
    <glyph glyph-name="multiply.old" horiz-adv-x="1136" 
d="M311 137l-231 230l256 251l-256 252l231 228l256 -252l256 252l232 -228l-258 -252l258 -251l-232 -230l-256 252z" />
    <glyph glyph-name="divide.old" horiz-adv-x="1091" 
d="M57 485v322h977v-322h-977zM350 57v351h389v-351h-389zM350 885v350h389v-350h-389z" />
    <glyph glyph-name="equal.old" horiz-adv-x="1067" 
d="M72 637v315h925v-315h-925zM72 168v317h925v-317h-925z" />
    <glyph glyph-name="less.old" horiz-adv-x="974" 
d="M897 86l-831 358v320l831 356v-336l-453 -180l453 -180v-338z" />
    <glyph glyph-name="greater.old" horiz-adv-x="974" 
d="M78 86v336l450 180l-450 182v336l829 -356v-320z" />
    <glyph glyph-name="numbersign.old" horiz-adv-x="1153" 
d="M133 0l45 289h-125v297h168l25 170h-137v297h182l41 264h266l-41 -264h156l41 264h266l-41 -264h125v-297h-170l-25 -170h140v-297h-185l-43 -289h-266l45 289h-158l-43 -289h-266zM487 586h156l25 170h-156z" />
    <glyph glyph-name="zero.num" horiz-adv-x="950" 
d="M473 532q-74 0 -137 14t-118.5 46t-94 80t-60.5 120.5t-22 163.5v48q0 95 24.5 170.5t65 123.5t97.5 80t117.5 45t129.5 13q96 0 173 -23t136.5 -71.5t92 -132t32.5 -197.5v-45q0 -94 -24.5 -169t-65.5 -124t-98 -81.5t-118.5 -46.5t-129.5 -14zM475 756q54 0 75 41
t21 153v56q0 85 -10.5 130.5t-30 61.5t-55.5 16q-49 0 -71.5 -42t-22.5 -156v-53q0 -119 21 -163t73 -44z" />
    <glyph glyph-name="one.num" horiz-adv-x="587" 
d="M176 547v569l-147 -14v196l266 123h215v-874h-334z" />
    <glyph glyph-name="two.num" horiz-adv-x="749" 
d="M35 547v217l160 129q81 68 116 111.5t35 93.5q0 90 -125 90q-85 0 -174 -33v223q139 58 309 58q168 0 257 -72.5t89 -204.5q0 -70 -28.5 -129t-71.5 -101.5t-113 -90.5l-73 -54v-4h291v-233h-672z" />
    <glyph glyph-name="three.num" horiz-adv-x="757" 
d="M336 532q-184 0 -301 52v202q101 -22 190 -22q77 0 109.5 16t32.5 49q0 64 -101 64h-112v190h106q109 0 109 64q0 59 -127 59q-77 0 -183 -18v198q140 50 299 50q155 0 245.5 -58t90.5 -168q0 -77 -45.5 -129t-122.5 -73v-4q97 -16 144 -64t47 -143q0 -124 -98.5 -194.5
t-282.5 -70.5z" />
    <glyph glyph-name="four.num" horiz-adv-x="890" 
d="M424 547v186h-389v201l399 485h318v-475h112v-211h-112v-186h-328zM291 938h143v182h-4l-139 -178v-4z" />
    <glyph glyph-name="five.num" horiz-adv-x="763" 
d="M340 532q-176 0 -307 52v209q105 -23 190 -23q146 0 146 72q0 38 -33.5 53.5t-112.5 15.5q-87 0 -153 -12l22 520h584v-225h-348l-6 -109q53 11 102 11q152 0 224.5 -62.5t72.5 -202.5q0 -141 -99 -220t-282 -79z" />
    <glyph glyph-name="six.num" horiz-adv-x="872" 
d="M463 535q-202 0 -312 104t-110 299v47q0 227 129 339t352 112q176 0 256 -39v-211q-82 20 -192 20q-117 0 -163 -33.5t-54 -109.5q80 39 186 39q287 0 287 -260q0 -138 -95.5 -222.5t-283.5 -84.5zM455 727q75 0 75 104q0 58 -21.5 80.5t-64.5 22.5q-40 0 -77 -14v-46
q0 -80 22 -113.5t66 -33.5z" />
    <glyph glyph-name="seven.num" horiz-adv-x="774" 
d="M66 547l327 620v4h-360v248h702v-217l-315 -655h-354z" />
    <glyph glyph-name="eight.num" horiz-adv-x="874" 
d="M430 532q-199 0 -296 64.5t-97 167.5q0 63 41.5 114t116.5 80q-71 37 -101.5 86t-30.5 125q0 124 103 195.5t278 71.5q181 0 273 -64t92 -176q0 -58 -35 -106t-106 -74q91 -36 130.5 -84.5t39.5 -128.5q0 -128 -108.5 -199.5t-299.5 -71.5zM422 723q100 0 100 76
q0 38 -29 62t-122 40q-54 -37 -54 -98q0 -36 25.5 -58t79.5 -22zM481 1092q58 30 58 84q0 32 -23 50.5t-67 18.5t-65.5 -18.5t-21.5 -48.5q0 -32 24.5 -50.5t94.5 -35.5z" />
    <glyph glyph-name="nine.num" horiz-adv-x="872" 
d="M352 535q-176 0 -264 43v204q110 -24 203 -24q119 0 164.5 33t50.5 110q-80 -39 -189 -39q-135 0 -209.5 67t-74.5 199q0 139 95 223.5t282 84.5q205 0 314.5 -101.5t109.5 -298.5v-47q0 -230 -124 -342t-358 -112zM430 1038q36 0 76 15v45q0 147 -86 147q-78 0 -78 -106
q0 -58 22 -79.5t66 -21.5z" />
    <glyph glyph-name="zero.den" horiz-adv-x="950" 
d="M473 -14q-74 0 -137 14t-118.5 46t-94 80t-60.5 120.5t-22 163.5v47q0 95 24.5 170.5t65 123.5t97.5 80t117.5 45t129.5 13q96 0 173 -23t136.5 -72t92 -132.5t32.5 -196.5v-45q0 -94 -24.5 -168.5t-65.5 -123.5t-98 -81.5t-118.5 -46.5t-129.5 -14zM475 209q54 0 75 41
t21 153v56q0 85 -10.5 131t-30 62t-55.5 16q-49 0 -71.5 -42.5t-22.5 -156.5v-53q0 -119 21 -163t73 -44z" />
    <glyph glyph-name="one.den" horiz-adv-x="587" 
d="M176 0v569l-147 -14v197l266 120h215v-872h-334z" />
    <glyph glyph-name="two.den" horiz-adv-x="749" 
d="M35 0v217l160 129q81 68 116 111.5t35 93.5q0 90 -125 90q-85 0 -174 -33v223q139 58 309 58q169 0 257.5 -73t88.5 -206q0 -100 -53.5 -173t-159.5 -148l-73 -51v-5h291v-233h-672z" />
    <glyph glyph-name="three.den" horiz-adv-x="757" 
d="M336 -14q-181 0 -301 49v205q105 -23 190 -23q78 0 110 15.5t32 50.5q0 63 -101 63h-112v191h106q58 0 83.5 15.5t25.5 47.5q0 59 -127 59q-77 0 -183 -18v199q137 49 299 49q155 0 245.5 -57.5t90.5 -167.5q0 -77 -46 -129.5t-122 -73.5v-4q97 -15 144 -64t47 -143
q0 -124 -98 -194t-283 -70z" />
    <glyph glyph-name="four.den" horiz-adv-x="890" 
d="M424 0v186h-389v201l399 485h318v-475h112v-211h-112v-186h-328zM291 391h143v182h-4l-139 -178v-4z" />
    <glyph glyph-name="five.den" horiz-adv-x="763" 
d="M340 -14q-178 0 -307 51v209q90 -23 190 -23q146 0 146 72q0 38 -34 54t-112 16q-64 0 -153 -13l22 520h584v-227h-348l-6 -106q48 10 102 10q152 0 224.5 -62.5t72.5 -201.5q0 -141 -99 -220t-282 -79z" />
    <glyph glyph-name="six.den" horiz-adv-x="872" 
d="M463 -12q-202 0 -312 104t-110 299v47q0 225 129 338t352 113q176 0 256 -39v-211q-82 20 -192 20q-117 0 -163 -33.5t-54 -109.5q80 39 186 39q287 0 287 -260q0 -138 -95.5 -222.5t-283.5 -84.5zM455 178q75 0 75 107q0 58 -21.5 80t-64.5 22q-40 0 -77 -14v-47
q0 -148 88 -148z" />
    <glyph glyph-name="seven.den" horiz-adv-x="774" 
d="M66 0l327 618v7h-360v247h702v-219l-315 -653h-354z" />
    <glyph glyph-name="eight.den" horiz-adv-x="874" 
d="M430 -14q-200 0 -296.5 64t-96.5 167q0 63 41.5 113.5t116.5 81.5q-71 37 -101.5 85.5t-30.5 123.5q0 125 102.5 196.5t278.5 71.5q181 0 273 -64t92 -176q0 -127 -141 -182q91 -34 130.5 -82t39.5 -129q0 -129 -108 -199.5t-300 -70.5zM422 176q100 0 100 76
q0 38 -29 62t-122 40q-54 -37 -54 -98q0 -36 25.5 -58t79.5 -22zM481 545q58 30 58 84q0 32 -23 50.5t-67 18.5q-43 0 -65 -19t-22 -48q0 -32 24.5 -50.5t94.5 -35.5z" />
    <glyph glyph-name="nine.den" horiz-adv-x="872" 
d="M352 -12q-176 0 -264 43v205q115 -25 203 -25q119 0 164.5 33t50.5 110q-80 -39 -189 -39q-135 0 -209.5 67.5t-74.5 199.5q0 139 95 223t282 84q205 0 314.5 -101.5t109.5 -298.5v-47q0 -230 -124 -342t-358 -112zM430 492q39 0 76 14v43q0 147 -86 147q-78 0 -78 -104
q0 -58 22 -79t66 -21z" />
    <glyph glyph-name="zero.sub" horiz-adv-x="950" 
d="M473 -260q-74 0 -137 14t-118.5 46t-94 80t-60.5 120.5t-22 163.5v47q0 95 24.5 170.5t65 123.5t97.5 80t117.5 45t129.5 13q96 0 173 -23t136.5 -72t92 -132.5t32.5 -196.5v-45q0 -94 -24.5 -168.5t-65.5 -123.5t-98 -81.5t-118.5 -46.5t-129.5 -14zM475 -37
q53 0 74.5 41.5t21.5 153.5v55q0 85 -10.5 131t-30 62t-55.5 16q-49 0 -71.5 -42.5t-22.5 -156.5v-53q0 -119 21 -163t73 -44z" />
    <glyph glyph-name="one.sub" horiz-adv-x="587" 
d="M176 -246v570l-147 -15v197l266 121h215v-873h-334z" />
    <glyph glyph-name="two.sub" horiz-adv-x="749" 
d="M35 -246v217l160 129q81 68 116 111.5t35 93.5q0 90 -125 90q-85 0 -174 -33v224q136 57 309 57q169 0 257.5 -72.5t88.5 -205.5q0 -100 -53.5 -173.5t-159.5 -148.5l-73 -51v-4h291v-234h-672z" />
    <glyph glyph-name="three.sub" horiz-adv-x="757" 
d="M336 -260q-181 0 -301 49v205q105 -23 190 -23q78 0 110 15.5t32 50.5q0 63 -101 63h-112v191h106q58 0 83.5 15.5t25.5 47.5q0 60 -127 60q-71 0 -183 -19v199q137 49 299 49q155 0 245.5 -57.5t90.5 -167.5q0 -77 -46 -129.5t-122 -73.5v-4q97 -15 144 -64t47 -143
q0 -124 -98 -194t-283 -70z" />
    <glyph glyph-name="four.sub" horiz-adv-x="890" 
d="M424 -246v187h-389v200l399 486h318v-475h112v-211h-112v-187h-328zM291 145h143v183h-4l-139 -178v-5z" />
    <glyph glyph-name="five.sub" horiz-adv-x="763" 
d="M340 -260q-178 0 -307 51v209q90 -23 190 -23q146 0 146 72q0 38 -34 54t-112 16q-64 0 -153 -13l22 521h584v-228h-348l-6 -106q48 10 102 10q152 0 224.5 -62.5t72.5 -201.5q0 -141 -99 -220t-282 -79z" />
    <glyph glyph-name="six.sub" horiz-adv-x="872" 
d="M463 -258q-202 0 -312 104t-110 299v48q0 225 129 337.5t352 112.5q176 0 256 -39v-211q-86 21 -192 21q-116 0 -162.5 -34t-54.5 -110q80 39 186 39q287 0 287 -260q0 -138 -95.5 -222.5t-283.5 -84.5zM455 -68q75 0 75 107q0 58 -21.5 80t-64.5 22q-40 0 -77 -14v-47
q0 -148 88 -148z" />
    <glyph glyph-name="seven.sub" horiz-adv-x="774" 
d="M66 -246l327 619v6h-360v248h702v-219l-315 -654h-354z" />
    <glyph glyph-name="eight.sub" horiz-adv-x="874" 
d="M430 -260q-200 0 -296.5 64t-96.5 167q0 63 41.5 113.5t116.5 81.5q-71 37 -101.5 85.5t-30.5 123.5q0 125 102.5 196.5t278.5 71.5q181 0 273 -64t92 -176q0 -127 -141 -182q91 -34 130.5 -82t39.5 -129q0 -129 -108 -199.5t-300 -70.5zM422 -70q100 0 100 76
q0 38 -29.5 62.5t-121.5 40.5q-54 -37 -54 -99q0 -36 25.5 -58t79.5 -22zM481 299q58 30 58 84q0 32 -23 51t-67 19q-43 0 -65 -19.5t-22 -48.5q0 -32 24.5 -50.5t94.5 -35.5z" />
    <glyph glyph-name="nine.sub" horiz-adv-x="872" 
d="M352 -258q-176 0 -264 43v205q115 -25 203 -25q119 0 164.5 33.5t50.5 110.5q-80 -39 -189 -39q-135 0 -209.5 67t-74.5 199q0 139 95 223t282 84q205 0 314.5 -101t109.5 -298v-47q0 -230 -124 -342.5t-358 -112.5zM430 246q39 0 76 14v43q0 148 -86 148q-78 0 -78 -105
q0 -58 22 -79t66 -21z" />
    <glyph glyph-name="zero.sup" horiz-adv-x="950" 
d="M473 645q-74 0 -137 14t-118.5 46t-94 80t-60.5 120.5t-22 163.5v47q0 95 24.5 170.5t65 123.5t97.5 80t117.5 45t129.5 13q96 0 173 -23t136.5 -72t92 -132.5t32.5 -196.5v-45q0 -94 -24.5 -168.5t-65.5 -123.5t-98 -81.5t-118.5 -46.5t-129.5 -14zM475 868
q53 0 74.5 41.5t21.5 153.5v55q0 85 -10.5 131t-30 62t-55.5 16q-49 0 -71.5 -42.5t-22.5 -156.5v-53q0 -119 21 -163t73 -44z" />
    <glyph glyph-name="one.sup" horiz-adv-x="587" 
d="M176 659v570l-147 -15v197l266 121h215v-873h-334z" />
    <glyph glyph-name="two.sup" horiz-adv-x="749" 
d="M35 659v218l160 129q82 68 116.5 111t34.5 93q0 90 -125 90q-88 0 -174 -32v223q136 57 309 57q169 0 257.5 -72.5t88.5 -205.5q0 -100 -53.5 -173.5t-159.5 -148.5l-73 -51v-4h291v-234h-672z" />
    <glyph glyph-name="three.sup" horiz-adv-x="757" 
d="M336 645q-181 0 -301 49v205q101 -22 190 -22q78 0 110 15.5t32 49.5q0 64 -101 64h-112v190h106q109 0 109 64q0 59 -127 59q-71 0 -183 -19v199q137 49 299 49q155 0 245.5 -57.5t90.5 -167.5q0 -77 -46 -129.5t-122 -73.5v-4q97 -15 144 -64t47 -143q0 -124 -98 -194
t-283 -70z" />
    <glyph glyph-name="four.sup" horiz-adv-x="890" 
d="M424 659v187h-389v201l399 485h318v-475h112v-211h-112v-187h-328zM291 1051h143v182h-4l-139 -178v-4z" />
    <glyph glyph-name="five.sup" horiz-adv-x="763" 
d="M340 645q-178 0 -307 51v209q86 -22 190 -22q146 0 146 71q0 38 -34 54t-112 16q-71 0 -153 -12l22 520h584v-227h-348l-6 -107q48 10 102 10q152 0 224.5 -62.5t72.5 -201.5q0 -141 -99 -220t-282 -79z" />
    <glyph glyph-name="six.sup" horiz-adv-x="872" 
d="M463 647q-202 0 -312 104t-110 300v47q0 225 129 337.5t352 112.5q176 0 256 -39v-211q-86 21 -192 21q-117 0 -163 -33.5t-54 -109.5q78 38 186 38q287 0 287 -260q0 -138 -95.5 -222.5t-283.5 -84.5zM455 838q75 0 75 106q0 58 -21.5 80.5t-64.5 22.5q-37 0 -77 -15
v-47q0 -147 88 -147z" />
    <glyph glyph-name="seven.sup" horiz-adv-x="774" 
d="M66 659l327 619v6h-360v248h702v-219l-315 -654h-354z" />
    <glyph glyph-name="eight.sup" horiz-adv-x="874" 
d="M430 645q-199 0 -296 64.5t-97 167.5q0 63 41 113t117 81q-71 37 -101.5 85.5t-30.5 123.5q0 125 102.5 196.5t278.5 71.5q181 0 273 -63.5t92 -175.5q0 -59 -34.5 -107t-106.5 -76q91 -34 130.5 -82t39.5 -129q0 -129 -108 -199.5t-300 -70.5zM422 836q100 0 100 75
q0 38 -29.5 62.5t-121.5 40.5q-54 -37 -54 -99q0 -79 105 -79zM481 1204q58 30 58 84q0 32 -23 51t-67 19q-43 0 -65 -19.5t-22 -48.5q0 -32 24.5 -50.5t94.5 -35.5z" />
    <glyph glyph-name="nine.sup" horiz-adv-x="872" 
d="M352 647q-176 0 -264 43v205q115 -25 203 -25q119 0 164.5 33.5t50.5 110.5q-80 -39 -189 -39q-135 0 -209.5 67t-74.5 199q0 139 95 223t282 84q205 0 314.5 -101t109.5 -298v-47q0 -230 -124 -342.5t-358 -112.5zM430 1151q39 0 76 14v43q0 148 -86 148q-78 0 -78 -105
q0 -58 22 -79t66 -21z" />
    <glyph glyph-name="g.alt" horiz-adv-x="1247" 
d="M563 -416q-262 0 -448 76v285q191 -49 338 -49q165 0 233 37t68 124v82h-11q-102 -102 -297 -102q-88 0 -160 27.5t-129.5 86t-89.5 159.5t-32 237v22q0 126 24.5 222.5t66.5 159t104 102t131 55.5t153 16q176 0 287 -86h10l23 66h342v-1084q0 -119 -42 -204t-124 -135.5
t-191.5 -73.5t-255.5 -23zM627 322q70 0 125 34v445q-35 24 -113 24q-84 0 -126 -47t-42 -180v-31q0 -76 10.5 -125.5t32.5 -75t48.5 -35t64.5 -9.5z" />
    <glyph glyph-name="l.alt" horiz-adv-x="655" 
d="M406 -23q-165 0 -247.5 73.5t-82.5 240.5v1222h424v-1167q0 -36 15 -49.5t46 -13.5q37 0 70 8v-266q-88 -48 -225 -48z" />
    <glyph glyph-name="gbreve.alt" horiz-adv-x="1247" 
d="M563 -416q-262 0 -448 76v285q191 -49 338 -49q165 0 233 37t68 124v82h-11q-102 -102 -297 -102q-88 0 -160 27.5t-129.5 86t-89.5 159.5t-32 237v22q0 126 24.5 222.5t66.5 159t104 102t131 55.5t153 16q176 0 287 -86h10l23 66h342v-1084q0 -119 -42 -204t-124 -135.5
t-191.5 -73.5t-255.5 -23zM627 322q70 0 125 34v445q-35 24 -113 24q-84 0 -126 -47t-42 -180v-31q0 -76 10.5 -125.5t32.5 -75t48.5 -35t64.5 -9.5zM633 1194q-157 0 -249 86t-97 225h264q10 -73 82 -73q74 0 84 73h264q-5 -139 -97.5 -225t-250.5 -86z" />
    <glyph glyph-name="gcircumflex.alt" horiz-adv-x="1247" 
d="M248 1186l215 325h342l215 -325h-299l-88 100l-86 -100h-299zM563 -416q-262 0 -448 76v285q191 -49 338 -49q165 0 233 37t68 124v82h-11q-102 -102 -297 -102q-88 0 -160 27.5t-129.5 86t-89.5 159.5t-32 237v22q0 126 24.5 222.5t66.5 159t104 102t131 55.5t153 16
q176 0 287 -86h10l23 66h342v-1084q0 -119 -42 -204t-124 -135.5t-191.5 -73.5t-255.5 -23zM627 322q70 0 125 34v445q-35 24 -113 24q-84 0 -126 -47t-42 -180v-31q0 -76 10.5 -125.5t32.5 -75t48.5 -35t64.5 -9.5z" />
    <glyph glyph-name="gcommaaccent.alt" horiz-adv-x="1247" 
d="M823 1497l-22 -305h-363l99 305h286zM563 -416q-262 0 -448 76v285q191 -49 338 -49q165 0 233 37t68 124v82h-11q-102 -102 -297 -102q-88 0 -160 27.5t-129.5 86t-89.5 159.5t-32 237v22q0 126 24.5 222.5t66.5 159t104 102t131 55.5t153 16q176 0 287 -86h10l23 66
h342v-1084q0 -119 -42 -204t-124 -135.5t-191.5 -73.5t-255.5 -23zM627 322q70 0 125 34v445q-35 24 -113 24q-84 0 -126 -47t-42 -180v-31q0 -76 10.5 -125.5t32.5 -75t48.5 -35t64.5 -9.5z" />
    <glyph glyph-name="gdotaccent.alt" horiz-adv-x="1247" 
d="M563 -416q-262 0 -448 76v285q191 -49 338 -49q165 0 233 37t68 124v82h-11q-102 -102 -297 -102q-88 0 -160 27.5t-129.5 86t-89.5 159.5t-32 237v22q0 126 24.5 222.5t66.5 159t104 102t131 55.5t153 16q176 0 287 -86h10l23 66h342v-1084q0 -119 -42 -204t-124 -135.5
t-191.5 -73.5t-255.5 -23zM627 322q70 0 125 34v445q-35 24 -113 24q-84 0 -126 -47t-42 -180v-31q0 -76 10.5 -125.5t32.5 -75t48.5 -35t64.5 -9.5zM422 1196v305h428v-305h-428z" />
    <glyph glyph-name="lacute.alt" horiz-adv-x="655" 
d="M406 -23q-165 0 -247.5 73.5t-82.5 240.5v1222h424v-1167q0 -36 15 -49.5t46 -13.5q37 0 70 8v-266q-88 -48 -225 -48zM111 1579l108 301h424l-197 -301h-335z" />
    <glyph glyph-name="lcaron.alt" horiz-adv-x="655" 
d="M406 -23q-165 0 -247.5 73.5t-82.5 240.5v1222h424v-1167q0 -36 15 -49.5t46 -13.5q37 0 70 8v-266q-88 -48 -225 -48zM791 1176h-222l13 337h272z" />
    <glyph glyph-name="lcommaaccent.alt" horiz-adv-x="655" 
d="M170 -373l20 305h365l-98 -305h-287zM406 -23q-165 0 -247.5 73.5t-82.5 240.5v1222h424v-1167q0 -36 15 -49.5t46 -13.5q37 0 70 8v-266q-88 -48 -225 -48z" />
    <glyph glyph-name="ldot.alt" horiz-adv-x="868" 
d="M406 -23q-165 0 -247.5 73.5t-82.5 240.5v1222h424v-1167q0 -36 15 -49.5t46 -13.5q37 0 70 8v-266q-88 -48 -225 -48zM567 592v282h312v-282h-312z" />
    <glyph glyph-name="lslash.alt" horiz-adv-x="684" 
d="M6 778l98 47v688h424v-481l129 64v-314l-129 -63v-373q0 -36 15 -49.5t47 -13.5q36 0 69 8v-266q-88 -48 -225 -48q-165 0 -247.5 73.5t-82.5 240.5v219l-98 -47v315z" />
    <glyph glyph-name="f_f_l.alt" horiz-adv-x="1988" 
d="M1739 -23q-165 0 -247.5 73.5t-82.5 240.5v956q-46 8 -76 8q-69 0 -99 -29.5t-30 -97.5v-24h133v-291h-133v-813h-426v813h-205v-813h-426v813h-131v291h131v70q0 170 100.5 258t270.5 88q100 0 205 -27v-258q-36 6 -59 6q-91 0 -91 -106v-31h205v49q0 111 33 185.5
t104.5 117.5t170 60.5t243.5 17.5q289 0 504 -49v-1139q0 -36 15 -49.5t46 -13.5q37 0 70 8v-266q-88 -48 -225 -48z" />
    <glyph glyph-name="f_l.alt" horiz-adv-x="1357" 
d="M1108 -23q-165 0 -247.5 73.5t-82.5 240.5v956q-46 8 -76 8q-69 0 -99 -29.5t-30 -97.5v-24h134v-291h-134v-813h-426v813h-131v291h131v49q0 111 33 185.5t104.5 117.5t170 60.5t243.5 17.5q289 0 504 -49v-1139q0 -36 15 -49.5t47 -13.5q36 0 69 8v-266
q-88 -48 -225 -48z" />
    <glyph glyph-name="registered.alt" horiz-adv-x="1574" 
d="M784 -29q-155 0 -292.5 58.5t-234 157t-152.5 234t-56 284.5q0 200 95 366.5t264 264.5t376 98q155 0 293.5 -57.5t236.5 -155.5t155 -232.5t57 -283.5t-57 -284.5t-155 -234t-236.5 -157t-293.5 -58.5zM784 88q173 0 310.5 79t214.5 220t77 318q0 268 -169.5 440
t-432.5 172q-262 0 -429 -171.5t-167 -440.5q0 -177 75.5 -318t211.5 -220t309 -79zM457 340v739h372q143 0 222 -61t79 -178q0 -67 -29 -118t-79 -73v-8l149 -301h-276l-115 242h-61v-242h-262zM719 743h69q80 0 80 78q0 74 -82 74h-67v-152z" />
    <glyph glyph-name="questiondown.uc" horiz-adv-x="946" 
d="M524 -25q-230 0 -359.5 92t-129.5 289q0 92 23.5 157.5t63 107.5t109.5 90q115 76 145 106.5t30 83.5v33h360v-76q0 -70 -18.5 -118.5t-54 -85t-103.5 -83.5q-63 -43 -88 -75t-25 -80q0 -62 45 -87.5t152 -25.5q132 0 241 31v-297q-170 -62 -391 -62zM381 1067v352h399
v-352h-399z" />
    <glyph glyph-name="exclamdown.uc" horiz-adv-x="610" 
d="M63 0l64 934h356l64 -934h-484zM104 1067v352h400v-352h-400z" />
    <glyph glyph-name="hyphen.uc" horiz-adv-x="720" 
d="M66 537v329h589v-329h-589z" />
    <glyph glyph-name="endash.uc" horiz-adv-x="890" 
d="M53 532v316h785v-316h-785z" />
    <glyph glyph-name="emdash.uc" horiz-adv-x="1613" 
d="M53 532v316h1508v-316h-1508z" />
    <glyph glyph-name="guilsinglleft.uc" horiz-adv-x="636" 
d="M236 182l-183 365v98l183 363h344l-181 -412l181 -414h-344z" />
    <glyph glyph-name="guilsinglright.uc" horiz-adv-x="636" 
d="M57 182l181 412l-181 414h344l183 -363v-98l-183 -365h-344z" />
    <glyph glyph-name="guillemotleft.uc" horiz-adv-x="1120" 
d="M719 182l-182 365v98l182 363h344l-180 -412l180 -414h-344zM236 182l-183 365v98l183 363h344l-181 -412l181 -414h-344z" />
    <glyph glyph-name="guillemotright.uc" horiz-adv-x="1120" 
d="M541 182l180 412l-180 414h344l182 -363v-98l-182 -365h-344zM57 182l181 412l-181 414h344l183 -363v-98l-183 -365h-344z" />
    <glyph glyph-name="parenleft.uc" horiz-adv-x="821" 
d="M471 -186q-78 62 -147 143.5t-130 188t-97 242.5t-36 282v49q0 146 36 281.5t97 242t130 187.5t147 143h342q-146 -170 -237 -383t-91 -455v-69q0 -250 91 -465t237 -387h-342z" />
    <glyph glyph-name="parenright.uc" horiz-adv-x="821" 
d="M8 -186q146 170 237 382.5t91 454.5v70q0 250 -91 465t-237 387h342q78 -62 147 -143.5t130 -188t97 -242.5t36 -282v-49q0 -146 -36 -281.5t-97 -242t-130 -187.5t-147 -143h-342z" />
    <glyph glyph-name="bracketleft.uc" horiz-adv-x="798" 
d="M96 -186v1759h662v-307h-238v-1145h238v-307h-662z" />
    <glyph glyph-name="bracketright.uc" horiz-adv-x="798" 
d="M43 -186v307h236v1145h-236v307h659v-1759h-659z" />
    <glyph glyph-name="braceleft.uc" horiz-adv-x="829" 
d="M788 -190q-171 1 -288.5 25.5t-186.5 73t-99 115.5t-30 162v201q0 76 -38 110t-119 42v305q83 7 120 35.5t37 105.5v199q0 95 30 164.5t98.5 121.5t187 79t288.5 28v-311q-92 -6 -136 -38t-44 -108v-159q0 -112 -54 -178t-189 -91v-6q135 -25 189 -91.5t54 -178.5v-160
q0 -74 42.5 -101t137.5 -34v-311z" />
    <glyph glyph-name="braceright.uc" horiz-adv-x="829" 
d="M43 -190v311q91 6 135.5 38t44.5 107v160q0 111 54 177t188 91v6q-134 25 -188 92t-54 179v159q0 74 -43 101.5t-137 34.5v311q226 -2 360.5 -46.5t189 -124t54.5 -206.5v-201q0 -76 37.5 -109.5t118.5 -41.5v-305q-83 -6 -119.5 -35.5t-36.5 -106.5v-198
q0 -95 -30.5 -164.5t-99 -121.5t-187 -79t-287.5 -28z" />
    <glyph glyph-name="slash.uc" horiz-adv-x="851" 
d="M371 -123h-365l471 1624h365z" />
    <glyph glyph-name="backslash.uc" horiz-adv-x="851" 
d="M846 -123h-367l-469 1624h365z" />
    <glyph glyph-name="bar.uc" horiz-adv-x="585" 
d="M131 -123v1624h324v-1624h-324z" />
    <glyph glyph-name="at.uc" horiz-adv-x="1660" 
d="M819 -27q-179 0 -318 37.5t-242.5 117t-158.5 210.5t-55 309q0 171 63 318.5t175 253t272 165.5t348 60q211 0 370.5 -68.5t251 -206t91.5 -327.5q0 -128 -37.5 -229.5t-103 -165.5t-151 -97t-185.5 -33q-98 0 -159 28.5t-77 76.5h-8q-88 -96 -223 -96q-260 0 -260 297
q0 201 99 330.5t271 129.5q114 0 170 -53h9l10 37h280l-90 -461q-5 -28 -6 -49.5t11 -34t40 -12.5q84 0 136.5 87t52.5 232q0 431 -510 431q-273 0 -444 -166t-171 -439q0 -136 39 -233.5t113 -154t171 -82t224 -25.5q249 0 479 78v-160q-202 -105 -477 -105zM780 520
q34 0 66 27l61 342q-25 18 -65 18q-41 0 -70.5 -45t-43 -112t-13.5 -146q0 -84 65 -84z" />
    </font>
</defs>
</svg>
